<?xml version="1.0" standalone="no"?>
<!DOCTYPE svg PUBLIC "-//W3C//DTD SVG 1.1//EN" "http://www.w3.org/Graphics/SVG/1.1/DTD/svg11.dtd" >
<svg>
<metadata>
Created by FontForge 20110222 at Mon Mar  7 13:17:25 2011
 By www-data
Copyright (c) 2008 by Jos Buivenga. All rights reserved.
</metadata>
<defs>
<font id="Calluna-Regular" horiz-adv-x="460" >
  <font-face 
    font-family="Calluna"
    font-weight="400"
    font-stretch="normal"
    units-per-em="1000"
    panose-1="0 0 5 0 0 0 0 0 0 0"
    ascent="750"
    descent="-250"
    x-height="454"
    cap-height="671"
    bbox="-54 -251 1048 871"
    underline-thickness="50"
    underline-position="-50"
    stemh="36"
    stemv="82"
    unicode-range="U+0020-F777"
  />
    <missing-glyph />
    <glyph glyph-name="space" unicode=" " horiz-adv-x="225" 
 />
    <glyph glyph-name="exclam" unicode="!" horiz-adv-x="276" 
d="M124 176l-44 480c89 24 116 36 116 36l3 -3s-11 -32 -17 -108l-33 -405h-25zM75 48c0 33 27 60 60 60s60 -27 60 -60s-27 -60 -60 -60s-60 27 -60 60z" />
    <glyph glyph-name="dollar" unicode="$" horiz-adv-x="440" 
d="M36 85c0 15 6 28 21 80h31c0 -93 48 -127 102 -135l8 209c-74 37 -154 76 -154 169c0 75 56 140 167 150l4 88h40l-4 -86c56 -1 115 -12 142 -17l-28 -140h-31c6 61 -20 113 -84 120l-8 -202c77 -38 163 -77 163 -175c0 -94 -79 -145 -177 -152l-3 -83h-40l3 83
c-73 3 -152 31 -152 91zM326 113c0 50 -39 80 -88 106l-8 -190c51 5 96 31 96 84zM122 440c0 -47 35 -75 80 -100l8 182c-50 -6 -88 -33 -88 -82z" />
    <glyph glyph-name="ampersand" unicode="&#x26;" horiz-adv-x="658" 
d="M37 154c0 89 75 140 152 191c-38 68 -61 134 -61 183c0 73 46 151 163 151c95 0 143 -58 143 -121c0 -87 -74 -145 -150 -199c46 -76 109 -155 172 -221c52 64 84 148 84 223c0 40 -22 59 -65 64v25h143l5 -15c-16 -30 -21 -54 -35 -98c-22 -70 -53 -157 -106 -226
c63 -65 122 -114 159 -132l-14 -21c-63 10 -131 46 -196 98c-49 -41 -111 -68 -192 -68c-95 0 -202 51 -202 166zM266 36c49 0 94 18 133 47c-74 66 -143 150 -192 231c-49 -36 -84 -75 -84 -127c0 -100 64 -151 143 -151zM213 552c0 -47 21 -103 53 -162
c47 39 82 85 82 148c0 44 -15 105 -72 105c-39 0 -63 -39 -63 -91z" />
    <glyph glyph-name="parenleft" unicode="(" horiz-adv-x="282" 
d="M45 270c0 263 159 416 159 416l34 -12s-118 -165 -118 -404c0 -262 141 -430 141 -430l-32 -15s-184 165 -184 445z" />
    <glyph glyph-name="parenright" unicode=")" horiz-adv-x="282" 
d="M21 -160c0 0 141 168 141 430c0 239 -118 404 -118 404l34 12s159 -153 159 -416c0 -280 -184 -445 -184 -445z" />
    <glyph glyph-name="asterisk" unicode="*" horiz-adv-x="493" 
d="M206 660c-5 19 24 28 40 28s45 -9 40 -28l-30 -117c-3 -13 -10 -21 -10 -21s-7 8 -10 21zM246 280c-16 0 -45 9 -40 28l30 117c3 13 10 21 10 21s7 -8 10 -21l30 -117c5 -19 -24 -28 -40 -28zM74 537c-19 5 -13 35 -5 49s31 35 45 21l86 -85c10 -9 13 -19 13 -19
s-10 -2 -23 2zM378 361l-86 85c-10 9 -13 19 -13 19s10 2 23 -2l116 -32c19 -5 13 -35 5 -49s-31 -35 -45 -21zM114 362c-15 -14 -37 6 -45 20s-14 44 4 49l117 32c13 4 23 2 23 2s-3 -10 -13 -19zM279 503c0 0 3 10 13 19l86 84c15 14 37 -6 45 -20s14 -44 -4 -49l-117 -32
c-13 -4 -23 -2 -23 -2z" />
    <glyph glyph-name="plus" unicode="+" horiz-adv-x="520" 
d="M36 223v55h196v210h59v-210h193v-55h-193v-223h-59v223h-196z" />
    <glyph glyph-name="comma" unicode="," horiz-adv-x="231" 
d="M55 43v35l77 41c30 -31 45 -70 45 -112c0 -84 -45 -132 -101 -178l-25 26c35 30 69 63 69 106c0 31 -21 57 -65 82z" />
    <glyph glyph-name="hyphen" unicode="-" horiz-adv-x="360" 
d="M62 217v66h236v-66h-236z" />
    <glyph glyph-name="period" unicode="." horiz-adv-x="234" 
d="M57 48c0 33 27 60 60 60s60 -27 60 -60s-27 -60 -60 -60s-60 27 -60 60z" />
    <glyph glyph-name="zero" unicode="0" horiz-adv-x="565" 
d="M282 35c89 0 140 101 140 204c0 97 -52 196 -139 196c-89 0 -140 -100 -140 -198c0 -102 52 -202 139 -202zM58 228c0 127 77 254 232 254c144 0 217 -115 217 -234c0 -127 -77 -260 -232 -260c-144 0 -217 121 -217 240z" />
    <glyph glyph-name="one" unicode="1" horiz-adv-x="369" 
d="M58 -5v34c64 0 84 18 84 64v284c0 46 -18 59 -89 59v34h262l-4 -32l-89 -11v-334c0 -30 -5 -53 -5 -53l103 -10l-4 -30z" />
    <glyph glyph-name="two" unicode="2" horiz-adv-x="469" 
d="M59 0l-8 31c76 68 220 186 220 300c0 63 -41 87 -87 87c-39 0 -83 -18 -115 -42l-19 22s62 84 171 84c68 0 141 -40 141 -125c0 -84 -89 -184 -210 -286h145c69 0 86 42 101 85h29l-31 -156h-337z" />
    <glyph glyph-name="three" unicode="3" horiz-adv-x="402" 
d="M28 -158c98 0 232 41 232 182c0 92 -80 116 -148 116c-17 0 -29 -2 -29 -2v47c72 7 156 69 156 152c0 49 -28 88 -83 88c-59 0 -114 -49 -114 -49l-19 22s62 84 164 84c81 0 143 -47 143 -124c0 -79 -89 -148 -152 -174c108 -11 174 -68 174 -145
c0 -166 -172 -233 -297 -233c-7 0 -21 1 -21 1z" />
    <glyph glyph-name="four" unicode="4" horiz-adv-x="511" 
d="M29 34l-7 30l301 404l53 16l2 -3s-8 -38 -8 -109v-279h110l-12 -59h-98v-165c0 -39 -5 -55 -5 -55l-77 -8l-4 3s5 19 5 55v170h-260zM94 93h195v202c0 20 2 46 4 65z" />
    <glyph glyph-name="five" unicode="5" horiz-adv-x="410" 
d="M42 -158c137 0 238 75 238 175c0 152 -233 169 -233 169l15 284h211c39 0 70 6 70 6l-14 -77h-230l-8 -142s275 -32 275 -225c0 -127 -139 -226 -289 -226c-16 0 -29 1 -29 1z" />
    <glyph glyph-name="six" unicode="6" horiz-adv-x="514" 
d="M267 -12c-142 0 -212 136 -212 291c0 194 115 400 357 400l6 -35c-195 -12 -272 -192 -272 -354c0 -139 52 -268 135 -268c70 0 107 86 107 166c0 101 -48 225 -168 180l-7 32c29 17 60 25 93 25c116 0 169 -98 169 -206c0 -111 -71 -231 -208 -231z" />
    <glyph glyph-name="seven" unicode="7" horiz-adv-x="474" 
d="M133 -92c28 43 77 118 171 325l73 161c-19 -2 -45 -4 -65 -4h-152c-67 0 -80 1 -103 -64h-29l29 144h330c39 0 64 4 64 4l5 -27s-34 -46 -49 -81l-211 -475c-25 -56 -32 -85 -62 -85c-26 0 -35 17 -35 33c0 20 9 30 34 69z" />
    <glyph glyph-name="eight" unicode="8" horiz-adv-x="506" 
d="M54 155c0 96 68 150 139 195c-61 51 -115 106 -115 177c0 86 76 152 187 152c100 0 166 -56 166 -139c0 -87 -70 -131 -132 -170c75 -60 154 -122 154 -207c0 -92 -89 -175 -207 -175c-91 0 -192 49 -192 167zM135 167c0 -92 54 -144 116 -144c55 0 120 41 120 113
c0 77 -76 133 -151 193c-50 -38 -85 -87 -85 -162zM160 549c0 -60 52 -108 112 -157c46 34 78 80 78 141c0 73 -44 111 -92 111c-46 0 -98 -35 -98 -95z" />
    <glyph glyph-name="nine" unicode="9" horiz-adv-x="527" 
d="M113 -159c195 12 272 184 272 344c0 136 -52 263 -135 263c-65 0 -102 -86 -102 -166c0 -93 46 -222 163 -175l7 -32c-29 -17 -60 -25 -93 -25c-111 0 -164 96 -164 201c0 111 71 231 203 231c142 0 212 -134 212 -286c0 -192 -115 -390 -357 -390z" />
    <glyph glyph-name="colon" unicode=":" horiz-adv-x="274" 
d="M77 390c0 33 27 60 60 60s60 -27 60 -60s-27 -60 -60 -60s-60 27 -60 60zM77 48c0 33 27 60 60 60s60 -27 60 -60s-27 -60 -60 -60s-60 27 -60 60z" />
    <glyph glyph-name="semicolon" unicode=";" horiz-adv-x="271" 
d="M77 43v35l77 41c30 -31 45 -70 45 -112c0 -84 -45 -132 -101 -178l-25 26c35 30 69 63 69 106c0 31 -21 57 -65 82zM75 390c0 33 27 60 60 60s60 -27 60 -60s-27 -60 -60 -60s-60 27 -60 60z" />
    <glyph glyph-name="equal" unicode="=" horiz-adv-x="520" 
d="M36 318v55h448v-55h-448zM36 128v55h448v-55h-448z" />
    <glyph glyph-name="question" unicode="?" horiz-adv-x="351" 
d="M121 176c-4 18 -5 34 -5 50c0 135 123 192 123 250c0 68 -191 137 -191 137l16 88s267 -93 267 -203c0 -84 -185 -147 -185 -322h-25zM77 48c0 33 27 60 60 60s60 -27 60 -60s-27 -60 -60 -60s-60 27 -60 60z" />
    <glyph glyph-name="at" unicode="@" horiz-adv-x="818" 
d="M290 189c0 -102 40 -137 79 -137c37 0 71 27 98 53v309s-177 -10 -177 -225zM35 184c0 219 181 411 404 411c190 0 335 -138 335 -325c0 -114 -54 -247 -204 -268l-105 -15l-2 4s8 29 8 54v39c-31 -58 -80 -96 -135 -96c-69 0 -133 61 -133 177c0 162 123 289 270 289
c22 0 66 -3 89 -9c0 0 -13 -48 -13 -88v-268c0 -33 11 -47 36 -47c40 0 120 37 120 195c0 177 -99 312 -280 312c-193 0 -319 -155 -319 -351s126 -316 262 -324l-10 -40c-185 8 -323 160 -323 350z" />
    <glyph glyph-name="A" unicode="A" horiz-adv-x="623" 
d="M-13 0v29c42 4 59 25 67 45l237 590l41 9l222 -568c27 -68 45 -73 76 -78l-4 -27h-43c-37 0 -152 -3 -152 -3v34c28 1 53 9 42 39l-61 160h-239l-13 -10l-69 -180l85 -12l-4 -28h-185zM310 500c-8 20 -16 46 -20 61l-111 -289h217z" />
    <glyph glyph-name="B" unicode="B" horiz-adv-x="603" 
d="M54 -3v32c45 5 72 26 72 62v478c0 48 -5 58 -82 73v25h234c168 0 233 -67 233 -146c0 -75 -58 -130 -119 -164c47 -10 168 -46 168 -168c0 -106 -91 -189 -271 -189h-90c-50 0 -145 -3 -145 -3zM209 39h64c153 0 186 67 186 135c0 155 -168 150 -208 150h-27l-10 -10
v-220c0 -30 -5 -55 -5 -55zM214 363h103c50 3 96 75 96 139c0 59 -39 126 -142 126h-47l-10 -10v-255z" />
    <glyph glyph-name="C" unicode="C" horiz-adv-x="679" 
d="M45 326c0 204 151 353 366 353c75 0 164 -18 216 -23l-30 -152h-34c0 104 -88 137 -169 137c-154 0 -256 -124 -256 -286c0 -180 126 -301 289 -301c125 0 201 71 201 71l14 -21s-75 -116 -249 -116c-178 0 -348 122 -348 338z" />
    <glyph glyph-name="D" unicode="D" horiz-adv-x="746" 
d="M54 -3v32c45 5 72 26 72 62v478c0 48 -5 58 -82 73v25h274c194 0 381 -73 381 -309c0 -226 -169 -358 -419 -358h-81c-50 0 -145 -3 -145 -3zM209 39h71c234 0 320 130 320 296c0 177 -99 293 -286 293h-90l-10 -10v-523c0 -30 -5 -56 -5 -56z" />
    <glyph glyph-name="E" unicode="E" horiz-adv-x="585" 
d="M54 -3v32c45 5 72 26 72 62v478c0 48 -5 58 -82 73v25h412c41 0 72 4 72 4l-31 -167h-34c5 103 -28 124 -108 124h-131l-10 -10v-260h185l8 57l37 6v-176h-47v74h-173l-10 -10v-214c0 -30 -5 -56 -5 -56h157c86 0 98 19 148 124h34l-37 -163h-312c-50 0 -145 -3 -145 -3z
" />
    <glyph glyph-name="F" unicode="F" horiz-adv-x="531" 
d="M54 -3v32c45 5 72 29 72 65v475c0 48 -5 58 -82 73v25h402c41 0 72 4 72 4l-31 -167h-34c5 103 -28 124 -108 124h-121l-10 -10v-265h178l8 57l37 6v-176h-47v74h-166l-10 -10v-210c0 -30 -5 -54 -5 -54l110 -9l-4 -28z" />
    <glyph glyph-name="G" unicode="G" horiz-adv-x="712" 
d="M46 320c0 179 115 359 371 359c85 0 191 -19 224 -22l-30 -153h-34c-1 110 -88 137 -167 137c-175 0 -266 -140 -266 -298c0 -181 123 -312 307 -312c32 0 64 4 100 12v145c0 48 -4 60 -92 73v25h213l5 -14s-39 -18 -39 -95v-163c-65 -10 -154 -26 -227 -26
c-200 0 -365 117 -365 332z" />
    <glyph glyph-name="H" unicode="H" horiz-adv-x="801" 
d="M53 -3v32c45 5 72 29 72 65v475c0 48 0 58 -74 73v25h78c90 0 112 4 112 4l5 -4s-33 -38 -33 -121v-186h372l10 10v199c0 48 0 58 -74 73v25h78c90 0 112 3 112 3l5 -4s-33 -37 -33 -120v-452c0 -30 -5 -54 -5 -54l90 -9l-4 -28l-241 -6v32c44 5 72 28 72 62v227h-372
l-10 -10v-214c0 -30 -5 -54 -5 -54l90 -9l-4 -28z" />
    <glyph glyph-name="I" unicode="I" horiz-adv-x="331" 
d="M53 -3v32c44 5 72 28 72 62v478c0 48 0 58 -74 73v25h78c90 0 112 4 112 4l5 -4s-33 -38 -33 -121v-455c0 -29 -5 -51 -5 -51l95 -9l-4 -28z" />
    <glyph glyph-name="J" unicode="J" horiz-adv-x="307" 
d="M116 50v519c0 48 0 58 -74 73v25h78c90 0 112 4 112 4l5 -4s-33 -38 -33 -121v-444c0 -167 -70 -265 -182 -265l-12 24c54 8 106 87 106 189z" />
    <glyph glyph-name="K" unicode="K" horiz-adv-x="643" 
d="M53 -3v32c44 5 72 28 72 62v478c0 48 0 58 -74 73v25h78c90 0 112 4 112 4l5 -4s-33 -38 -33 -121v-176h19s18 11 34 27l195 194c19 19 20 45 -28 51v25h187l5 -14s-54 -12 -129 -87l-189 -188v-10l242 -278c45 -52 53 -54 85 -57l11 -1l-4 -32h-147l-3 3s-10 30 -75 106
l-187 217h-16v-235c0 -29 -5 -51 -5 -51l90 -9l-4 -28z" />
    <glyph glyph-name="L" unicode="L" horiz-adv-x="564" 
d="M56 -3v32c45 5 67 26 67 62v478c0 48 0 58 -74 73v25h78c90 0 112 4 112 4l5 -4s-33 -38 -33 -121v-452c0 -30 -5 -55 -5 -55h167c86 0 102 31 152 144h34l-41 -183h-322c-50 0 -140 -3 -140 -3z" />
    <glyph glyph-name="M" unicode="M" horiz-adv-x="900" 
d="M44 -3v32c45 5 70 25 72 62l19 478c2 48 -4 58 -81 73v25h80c80 0 110 4 110 4l4 -4s13 -52 29 -92l153 -392c7 -17 14 -39 19 -57l194 472c8 21 22 69 22 69h26c88 0 108 4 108 4l5 -4s-35 -41 -32 -126l19 -453c1 -31 -3 -51 -3 -51l88 -6l-4 -28l-239 -6v32
c44 5 73 25 72 59l-22 493l-240 -581l-31 12l-231 568s-2 -20 -3 -39l-18 -450c-1 -28 -7 -54 -7 -54l92 -6l-4 -28z" />
    <glyph glyph-name="N" unicode="N" horiz-adv-x="766" 
d="M55 -3v32c45 5 72 26 72 62v450c0 69 -16 89 -82 101v25h30c49 0 100 4 100 4s12 -23 37 -52l362 -418c13 -16 29 -37 40 -53v416c0 44 -1 67 -82 75v28h190l5 -14s-69 -19 -69 -102v-556h-26l-425 502c-12 14 -26 33 -36 48v-454c0 -30 -5 -54 -5 -54l90 -6l-4 -28z" />
    <glyph glyph-name="O" unicode="O" horiz-adv-x="795" 
d="M144 351c0 -149 94 -323 259 -323c157 0 248 158 248 304c0 150 -94 307 -260 307c-156 0 -247 -141 -247 -288zM45 325c0 180 129 354 363 354c209 0 342 -141 342 -322c0 -191 -146 -369 -367 -369c-205 0 -338 155 -338 337z" />
    <glyph glyph-name="P" unicode="P" horiz-adv-x="562" 
d="M54 -3v32c44 5 72 28 72 62v478c0 48 -5 58 -82 73v25h248c115 0 245 -37 245 -184c0 -161 -151 -214 -259 -203v28c116 3 161 75 161 154c0 120 -94 166 -200 166h-15l-10 -10v-527c0 -29 -5 -51 -5 -51l95 -9l-4 -28z" />
    <glyph glyph-name="Q" unicode="Q" horiz-adv-x="795" 
d="M308 -4c-162 32 -263 170 -263 329c0 180 129 354 363 354c209 0 342 -141 342 -322c0 -157 -99 -306 -260 -354c67 -55 133 -180 255 -180c10 0 24 1 38 4v-26s-51 -29 -108 -29c-115 0 -192 112 -231 157c-57 67 -73 55 -136 67zM144 351c0 -149 94 -323 259 -323
c157 0 248 158 248 304c0 150 -94 307 -260 307c-156 0 -247 -141 -247 -288z" />
    <glyph glyph-name="R" unicode="R" horiz-adv-x="628" 
d="M54 -3v32c44 5 72 28 72 62v478c0 48 -5 58 -82 73v25h232c180 0 248 -74 248 -161c0 -94 -84 -158 -132 -183v-13l144 -211c43 -62 63 -64 89 -66l11 -1l-4 -32h-145l-4 3s-21 50 -62 110l-124 183h-73l-10 -10v-195c0 -29 -5 -51 -5 -51l90 -9l-4 -28zM214 335h84
c60 0 129 48 129 145c0 76 -43 148 -166 148h-37l-10 -10v-283z" />
    <glyph glyph-name="S" unicode="S" horiz-adv-x="506" 
d="M44 91c0 15 4 29 23 89h34c0 -122 77 -154 145 -154c65 0 127 28 127 105c0 174 -313 171 -313 374c0 99 75 174 223 174c71 0 143 -16 165 -19l-31 -156h-34c10 75 -28 137 -112 137c-67 0 -124 -31 -124 -104c0 -175 313 -158 313 -373c0 -120 -103 -176 -223 -176
c-87 0 -193 30 -193 103z" />
    <glyph glyph-name="T" unicode="T" horiz-adv-x="645" 
d="M204 -3v32c45 5 72 29 72 65v534h-99c-69 0 -99 -21 -137 -124h-34l31 169s26 -6 67 -6h468c41 0 72 6 72 6l-31 -169h-34c5 103 -28 124 -106 124h-99l-10 -10v-524c0 -30 -5 -54 -5 -54l100 -9l-4 -28z" />
    <glyph glyph-name="U" unicode="U" horiz-adv-x="735" 
d="M99 235v334c0 48 0 58 -74 73v25h78c90 0 112 4 112 4l5 -4s-33 -38 -33 -121v-303c0 -146 99 -210 199 -210s205 68 205 203v328c0 44 -1 67 -81 75v28h194l5 -14s-69 -19 -69 -102v-312c0 -163 -126 -251 -276 -251c-132 0 -265 64 -265 247z" />
    <glyph glyph-name="V" unicode="V" horiz-adv-x="614" 
d="M285 3l-230 584c-17 43 -59 55 -59 55v25h61c63 0 103 4 103 4l4 -4c-11 -24 -17 -63 -6 -92l147 -395c6 -18 14 -43 19 -62l180 437c19 46 5 72 -48 87v25h153l4 -14s-29 -20 -65 -107l-230 -555z" />
    <glyph glyph-name="W" unicode="W" horiz-adv-x="961" 
d="M660 3l-184 475l-154 -487l-39 12l-230 584c-17 43 -59 55 -59 55v25h61c63 0 103 4 103 4l4 -4c-11 -24 -17 -63 -6 -92l144 -386c7 -19 14 -45 19 -64l132 416l-17 46c-17 43 -59 55 -59 55v25h61c63 0 103 4 103 4l4 -4c-11 -24 -17 -63 -6 -92l141 -388
c6 -18 13 -42 18 -61l136 429c15 47 4 72 -48 87v25h152l4 -14s-35 -18 -65 -107l-176 -555z" />
    <glyph glyph-name="X" unicode="X" horiz-adv-x="623" 
d="M9 0v29c44 4 69 23 82 41l180 257l-183 271c-25 37 -67 44 -67 44v25h62c64 0 99 4 99 4l4 -4s-15 -39 7 -72l136 -204l131 191c18 26 11 52 -39 60v25h170l5 -16s-36 -8 -74 -59l-168 -240l215 -316l51 -8l-4 -28h-45c-45 0 -159 -4 -159 -4v32c41 5 48 14 31 40
l-146 219l-171 -244l92 -12l-4 -31h-205z" />
    <glyph glyph-name="Y" unicode="Y" horiz-adv-x="585" 
d="M177 -3v32c44 5 72 28 72 62v204l-192 303c-24 38 -53 44 -53 44v25h48c63 0 102 4 102 4l4 -4s-19 -38 2 -72l124 -200c10 -16 21 -39 29 -56l149 241c16 26 11 54 -40 62v25h163l4 -14s-39 -13 -69 -61l-183 -295v-206c0 -29 -5 -51 -5 -51l90 -9l-4 -28z" />
    <glyph glyph-name="Z" unicode="Z" horiz-adv-x="610" 
d="M34 -4l-6 36s21 22 55 71l334 476c11 15 26 34 39 49h-220c-82 0 -109 -21 -147 -124h-34l25 163h410c39 0 64 4 64 4l4 -36s-14 -20 -50 -71l-331 -476c-11 -16 -27 -35 -40 -49h252c86 0 102 31 152 144h34l-41 -183h-436c-39 0 -64 -4 -64 -4z" />
    <glyph glyph-name="bracketleft" unicode="[" horiz-adv-x="288" 
d="M85 -155v822h183v-45h-118v-732h118v-45h-183z" />
    <glyph glyph-name="bracketright" unicode="]" horiz-adv-x="288" 
d="M20 -110h118v732h-118v45h183v-822h-183v45z" />
    <glyph glyph-name="grave" unicode="`" horiz-adv-x="500" 
d="M169 675v27l87 -9l85 -171l-31 -17z" />
    <glyph glyph-name="a" unicode="a" 
d="M28 89c0 96 119 146 223 162l34 5c1 21 1 79 -4 107c-7 37 -26 64 -63 64c-68 0 -106 -96 -106 -96h-32l-17 75s73 56 185 56c94 0 119 -38 119 -143v-230c0 -32 4 -47 27 -47c27 0 55 20 55 20l13 -21s-47 -53 -106 -53c-38 0 -68 22 -68 71v24s-53 -95 -156 -95
c-66 0 -104 47 -104 101zM172 45c39 0 87 38 113 60v118l-31 -5c-57 -9 -138 -39 -138 -111c0 -40 26 -62 56 -62z" />
    <glyph glyph-name="b" unicode="b" horiz-adv-x="519" 
d="M158 40c0 0 31 -14 73 -14c97 0 163 75 163 189c0 96 -46 189 -136 189c-44 0 -85 -23 -100 -37v-327zM67 3c0 0 9 44 9 100v496c0 43 -1 68 -30 68h-42v27c115 25 161 45 161 45l3 -3s-10 -37 -10 -114v-160c0 -46 -4 -66 -4 -74c27 33 67 74 142 74
c122 0 185 -108 185 -218c0 -126 -83 -256 -258 -256c-54 0 -118 12 -153 12z" />
    <glyph glyph-name="c" unicode="c" horiz-adv-x="441" 
d="M38 216c0 121 76 246 214 246c61 0 158 -24 158 -76c0 -19 -14 -36 -38 -36c-51 0 -57 78 -127 78c-80 0 -125 -86 -125 -183c0 -96 47 -190 165 -190c75 0 116 41 116 41l11 -21s-46 -87 -162 -87c-140 0 -212 113 -212 228z" />
    <glyph glyph-name="d" unicode="d" horiz-adv-x="539" 
d="M37 205c0 126 85 257 256 257c36 0 71 -6 71 -6v143c0 43 -1 68 -30 68h-42v27c115 25 161 45 161 45l3 -3s-10 -37 -10 -114v-527c0 -57 23 -57 56 -57h28l-3 -27c-109 -11 -160 -19 -160 -19l-3 3s4 28 4 53v21c-27 -40 -68 -81 -143 -81c-123 0 -188 108 -188 217z
M260 46c49 0 88 28 104 44v281c0 46 -40 53 -72 53c-102 0 -168 -73 -168 -189c0 -96 46 -189 136 -189z" />
    <glyph glyph-name="e" unicode="e" 
d="M38 216c0 136 90 246 211 246c86 0 171 -56 174 -166c0 0 -26 -10 -46 -13l-249 -36l-10 -12c4 -91 50 -180 162 -180c82 0 130 48 130 48l11 -21s-52 -94 -171 -94c-142 0 -212 111 -212 228zM234 424c-67 0 -105 -66 -114 -141l210 27s-8 114 -96 114z" />
    <glyph glyph-name="f" unicode="f" horiz-adv-x="327" 
d="M37 -3v29c45 5 62 29 62 65v308h-63v30l63 22v27c0 149 74 250 204 250c48 0 107 -17 107 -59c0 -19 -15 -38 -42 -38c-36 0 -58 51 -112 51c-51 0 -75 -48 -75 -177v-55h141l-8 -48h-123l-10 -10v-301c0 -30 -5 -54 -5 -54l105 -9l-4 -25z" />
    <glyph glyph-name="g" unicode="g" horiz-adv-x="483" 
d="M67 73c0 42 58 62 94 81c-67 19 -120 67 -120 147c0 104 88 161 187 161c58 0 82 -20 132 -20h48c32 0 66 13 66 13l-9 -65h-53c-22 0 -35 3 -35 3s41 -35 41 -98c0 -94 -90 -150 -190 -150c-17 0 -33 1 -49 4c-7 -8 -25 -28 -25 -42c0 -27 60 -34 138 -50
c84 -17 174 -45 174 -126c0 -98 -131 -168 -254 -168c-90 0 -188 37 -188 121c0 77 80 107 126 125c-47 12 -83 30 -83 64zM258 -13c-28 6 -57 11 -84 17c-24 -16 -71 -53 -71 -108c0 -62 60 -95 126 -95c73 0 154 40 154 101c0 51 -59 71 -125 85zM231 180
c72 0 100 56 100 115c0 64 -33 132 -105 132c-70 0 -98 -61 -98 -124c0 -62 29 -123 103 -123z" />
    <glyph glyph-name="h" unicode="h" horiz-adv-x="562" 
d="M28 -3v29c45 5 62 29 62 65v508c0 43 -1 68 -30 68h-42v27c115 25 161 45 161 45l3 -3s-10 -37 -10 -114v-194c0 -46 -4 -66 -4 -74c36 52 106 108 190 108c69 0 114 -38 114 -135v-236c0 -30 -5 -54 -5 -54l85 -9l-4 -25l-215 -6v29c41 5 57 29 57 65v214
c0 76 -29 96 -69 96c-46 0 -107 -28 -149 -68v-242c0 -30 -5 -54 -5 -54l80 -9l-4 -25z" />
    <glyph glyph-name="i" unicode="i" horiz-adv-x="277" 
d="M38 -3v29c45 5 62 29 62 65v243c0 43 -1 68 -30 68h-45v27c146 34 167 47 167 47l1 -3s-11 -33 -11 -114v-268c0 -30 -5 -54 -5 -54l85 -9l-4 -25zM132 564c-29 0 -54 25 -54 54s25 54 54 54s54 -25 54 -54s-25 -54 -54 -54z" />
    <glyph glyph-name="j" unicode="j" horiz-adv-x="251" 
d="M92 -24v358c0 43 -1 68 -30 68h-45v27c145 34 167 47 167 47l1 -3s-11 -29 -11 -110v-335c0 -167 -64 -265 -176 -265l-12 24c54 8 106 87 106 189zM124 564c-29 0 -54 25 -54 54s25 54 54 54s54 -25 54 -54s-25 -54 -54 -54z" />
    <glyph glyph-name="k" unicode="k" horiz-adv-x="517" 
d="M28 -3v29c45 5 62 29 62 65v508c0 43 -1 68 -30 68h-42v27c115 25 161 45 161 45l3 -3s-10 -37 -10 -114v-355h12l101 85c16 14 38 30 38 48c0 12 -11 19 -33 25v25h183l5 -16s-58 -15 -105 -55l-116 -99v-10s9 -13 16 -20l148 -160c44 -48 53 -56 90 -59l11 -1l-4 -30
l-144 -3s-13 36 -41 69l-149 168h-12v-143c0 -30 -5 -54 -5 -54l80 -9l-4 -25z" />
    <glyph glyph-name="l" unicode="l" horiz-adv-x="267" 
d="M28 -3v29c45 5 62 29 62 65v508c0 43 -1 68 -30 68h-42v27c115 25 161 45 161 45l3 -3s-10 -37 -10 -114v-531c0 -30 -5 -54 -5 -54l85 -9l-4 -25z" />
    <glyph glyph-name="m" unicode="m" horiz-adv-x="844" 
d="M37 -3v29c45 5 62 29 62 65v243c0 43 -1 68 -30 68h-43v27c98 20 160 47 160 47l3 -3s-9 -32 -12 -121c36 52 100 110 181 110c64 0 105 -36 105 -115c38 60 104 115 183 115c65 0 107 -35 107 -135v-236c0 -30 -5 -54 -5 -54l85 -9l-4 -25l-215 -6v29c45 5 57 29 57 65
v214c0 76 -21 96 -58 96c-45 0 -147 -41 -147 -99v-211c0 -30 -5 -54 -5 -54l80 -9l-4 -25l-210 -6v29c45 5 57 29 57 65v214c0 76 -21 96 -59 96c-45 0 -101 -27 -144 -70v-240c0 -30 -5 -54 -5 -54l80 -9l-4 -25z" />
    <glyph glyph-name="n" unicode="n" horiz-adv-x="572" 
d="M38 -3v29c45 5 62 29 62 65v243c0 43 -1 68 -30 68h-45v27c98 20 160 47 160 47l3 -3s-9 -33 -10 -122c36 54 106 111 190 111c69 0 114 -38 114 -135v-236c0 -30 -5 -53 -5 -53l85 -10l-4 -25l-215 -6v29c45 5 57 29 57 65v214c0 76 -29 96 -69 96
c-46 0 -107 -27 -149 -70v-240c0 -30 -5 -53 -5 -53l80 -10l-4 -25z" />
    <glyph glyph-name="o" unicode="o" horiz-adv-x="532" 
d="M38 215c0 117 65 247 235 247c146 0 221 -96 221 -219c0 -124 -77 -255 -237 -255c-141 0 -219 99 -219 227zM130 238c0 -100 41 -216 141 -216c85 0 131 86 131 193c0 99 -40 213 -141 213c-92 0 -131 -94 -131 -190z" />
    <glyph glyph-name="p" unicode="p" horiz-adv-x="534" 
d="M38 -245v29c45 25 52 48 52 94v456c0 43 -1 68 -30 68h-40v27c98 20 157 47 157 47l3 -3s-6 -25 -10 -89c27 34 65 78 144 78c122 0 182 -108 182 -218c0 -127 -81 -256 -257 -256c-27 0 -48 3 -67 6v-115c0 -30 -5 -57 -5 -57h105l-4 -24s-158 -19 -230 -43zM244 26
c104 0 165 75 165 189c0 96 -42 189 -131 189c-39 0 -75 -18 -106 -42v-282c0 -47 39 -54 72 -54z" />
    <glyph glyph-name="q" unicode="q" horiz-adv-x="519" 
d="M37 205c0 129 92 257 263 257c50 0 106 -11 151 -12l3 -3s-9 -37 -9 -100v-472c0 -29 -5 -56 -5 -56h75l-4 -24c-126 -16 -210 -42 -210 -42v29c45 25 62 50 62 96v110c0 46 4 66 4 74c-25 -33 -68 -74 -142 -74c-120 0 -188 108 -188 217zM124 233
c0 -95 49 -187 137 -187c44 0 85 23 102 37v327s-32 14 -73 14c-92 0 -166 -75 -166 -191z" />
    <glyph glyph-name="r" unicode="r" horiz-adv-x="375" 
d="M38 -3v29c45 5 62 29 62 65v243c0 43 -1 68 -30 68h-45v27c98 20 162 47 162 47l3 -3s-9 -33 -12 -127c30 56 83 116 135 116c24 0 54 -12 54 -46c0 -30 -21 -49 -47 -49c-23 0 -26 17 -49 17c-34 0 -67 -33 -89 -58v-235c0 -30 -5 -54 -5 -54l95 -9l-4 -25z" />
    <glyph glyph-name="s" unicode="s" horiz-adv-x="386" 
d="M39 56c0 20 13 76 13 76h30c6 -85 65 -110 113 -110c49 0 83 26 83 68c0 107 -229 100 -229 245c0 74 57 127 163 127c60 0 125 -18 125 -18l-20 -103h-31c0 82 -69 87 -90 87c-54 0 -75 -33 -75 -64c0 -106 228 -87 228 -245c0 -83 -65 -131 -160 -131
c-46 0 -150 11 -150 68z" />
    <glyph glyph-name="t" unicode="t" horiz-adv-x="347" 
d="M87 119v215c0 29 3 65 3 65h-66v30s44 9 68 31l37 109l45 -1l3 -3s-9 -29 -9 -100v-15h156l-7 -48h-138l-10 -10v-254c0 -58 17 -90 70 -90c45 0 90 21 90 21l13 -19s-57 -62 -144 -62c-71 0 -111 40 -111 131z" />
    <glyph glyph-name="u" unicode="u" horiz-adv-x="559" 
d="M86 122v212c0 43 -1 68 -30 68h-35v28c97 17 152 37 152 37l4 -3s-9 -28 -9 -105v-214c0 -76 27 -96 68 -96c46 0 102 27 145 71v214c0 43 -1 68 -30 68h-33v28c96 17 150 37 150 37l4 -3s-9 -28 -9 -105v-264c0 -57 23 -57 56 -57h28l-3 -27c-109 -11 -164 -20 -164 -20
l-4 3s9 29 9 54v52c-36 -53 -102 -112 -186 -112c-70 0 -113 38 -113 134z" />
    <glyph glyph-name="v" unicode="v" horiz-adv-x="457" 
d="M200 0l-143 367c-20 51 -55 58 -55 58v25h46c63 0 100 4 100 4l4 -4c-12 -27 -12 -62 -1 -92l76 -211c6 -18 13 -43 18 -62l118 267c19 44 -12 64 -50 73v25h135l5 -16s-15 -6 -36 -52l-175 -395z" />
    <glyph glyph-name="w" unicode="w" horiz-adv-x="730" 
d="M200 0l-143 367c-20 51 -55 58 -55 58v25h46c63 0 98 4 98 4l4 -4s-19 -43 -1 -92l78 -211l16 -54l93 221c5 13 10 30 6 46l-2 7c-19 51 -55 58 -55 58v25h46c63 0 98 4 98 4l4 -4s-19 -43 -1 -92l77 -207c6 -17 12 -39 17 -57l109 259c17 40 -12 63 -50 72v25h134l5 -16
s-17 -8 -36 -53l-168 -394l-37 13l-115 294l-131 -307z" />
    <glyph glyph-name="x" unicode="x" horiz-adv-x="489" 
d="M283 -3v31c44 0 48 12 31 37l-85 123l-119 -151l76 -9l-4 -25l-166 -6v29c39 4 58 27 69 40l123 154l-107 152c-34 49 -75 53 -75 53v25h48c67 0 103 4 103 4l4 -4s-12 -34 14 -72l67 -99l78 99c16 22 7 40 -41 47v25h157l5 -16s-34 -6 -69 -50l-109 -137l152 -216l45 -4
l-4 -24z" />
    <glyph glyph-name="y" unicode="y" horiz-adv-x="461" 
d="M71 -154c53 0 88 34 106 75l32 75c-5 14 -13 37 -24 65l-128 306c-21 50 -56 58 -56 58v25h47c63 0 102 4 102 4l4 -4c-12 -24 -12 -65 -1 -92l81 -203c6 -17 14 -42 19 -60l113 258c17 40 -18 62 -55 72v25h139l5 -16s-18 -10 -36 -53l-173 -393
c-27 -60 -84 -225 -180 -225c-29 0 -44 20 -44 42c0 20 13 41 49 41z" />
    <glyph glyph-name="z" unicode="z" horiz-adv-x="439" 
d="M40 -4l-8 26s11 10 36 48l194 299c9 14 24 33 36 48h-133c-61 0 -88 -57 -96 -85h-29l18 118h263c43 0 68 4 68 4l8 -26s-4 -2 -34 -48l-189 -296c-10 -16 -25 -35 -37 -50h122c97 0 119 100 119 100h29l-27 -134h-272c-43 0 -68 -4 -68 -4z" />
    <glyph glyph-name="braceleft" unicode="{" horiz-adv-x="348" 
d="M134 -66c0 101 7 308 -127 311v35c134 3 127 200 127 301c0 113 87 160 204 160l5 -36c-123 -9 -137 -53 -137 -177c0 -184 -59 -244 -111 -264v-2c52 -20 111 -91 111 -275c0 -124 14 -167 137 -177l-5 -36c-117 0 -204 40 -204 160z" />
    <glyph glyph-name="bar" unicode="|" horiz-adv-x="233" 
d="M84 -225v974h65v-974h-65z" />
    <glyph glyph-name="braceright" unicode="}" horiz-adv-x="348" 
d="M142 -13c0 184 59 255 111 275v2c-52 20 -111 80 -111 264c0 124 -14 168 -137 177l5 36c117 0 204 -47 204 -160c0 -101 -7 -298 127 -301v-35c-134 -3 -127 -210 -127 -311c0 -120 -87 -160 -204 -160l-5 36c123 10 137 53 137 177z" />
    <glyph glyph-name="cent" unicode="&#xa2;" horiz-adv-x="432" 
d="M38 274c0 102 63 205 188 213l5 90h40l-5 -90c56 -6 131 -31 131 -73c0 -23 -14 -38 -39 -38c-39 0 -54 52 -94 71l-15 -307c10 -1 20 -2 31 -2c41 0 80 13 116 44l11 -21s-47 -89 -162 -92l-4 -91h-40l4 93c-113 16 -167 108 -167 203zM120 307c0 -63 28 -127 89 -155
l16 301c-67 -6 -105 -75 -105 -146z" />
    <glyph glyph-name="sterling" unicode="&#xa3;" horiz-adv-x="509" 
d="M54 244v40h67l11 88c14 113 63 193 184 193c51 0 117 -15 117 -56c0 -23 -16 -41 -41 -41c-41 0 -54 55 -107 55c-49 0 -64 -32 -74 -154l-9 -85h185l-5 -40h-184v-4c-8 -99 -37 -162 -37 -162s79 -35 157 -35c57 0 117 19 131 84l7 32h31c-9 -88 -37 -184 -158 -184
c-22 0 -48 4 -77 11l-84 21c-14 3 -28 7 -44 7c-20 0 -42 -3 -71 -14l-12 29s52 24 60 90l15 125h-62z" />
    <glyph glyph-name="yen" unicode="&#xa5;" horiz-adv-x="511" 
d="M71 270v40h119l-117 185c-18 29 -44 33 -44 33v25h40c49 0 92 3 92 3l3 -3s-13 -29 2 -54l81 -133c9 -16 20 -38 28 -55l105 169c13 21 11 42 -32 48v25h128l4 -16s-21 -3 -45 -41l-119 -186h131v-40h-150v-68h150v-40h-150v-71c0 -30 -5 -54 -5 -54l85 -9l-4 -25
l-220 -6v29c45 5 62 29 62 65v71h-144v40h144v68h-144z" />
    <glyph glyph-name="dieresis" unicode="&#xa8;" horiz-adv-x="500" 
d="M159 564c-29 0 -54 25 -54 54s25 54 54 54s54 -25 54 -54s-25 -54 -54 -54zM340 564c-29 0 -54 25 -54 54s25 54 54 54s54 -25 54 -54s-25 -54 -54 -54z" />
    <glyph glyph-name="plusminus" unicode="&#xb1;" horiz-adv-x="520" 
d="M36 318v55h196v185h59v-185h193v-55h-193v-198h-59v198h-196zM36 0v55h448v-55h-448z" />
    <glyph glyph-name="acute" unicode="&#xb4;" horiz-adv-x="500" 
d="M190 505l-31 17l85 171l87 9v-27z" />
    <glyph glyph-name="cedilla" unicode="&#xb8;" horiz-adv-x="500" 
d="M217 -81c0 29 39 81 39 81h31s-12 -31 -12 -45c0 -35 84 -27 84 -94c0 -49 -47 -98 -111 -98c-56 0 -91 36 -91 36l15 32s34 -25 70 -25c31 0 52 15 52 36c0 34 -77 37 -77 77z" />
    <glyph glyph-name="Adieresis" unicode="&#xc4;" horiz-adv-x="623" 
d="M-13 0v29c42 4 59 25 67 45l237 590l41 9l222 -568c27 -68 45 -73 76 -78l-4 -27h-43c-37 0 -152 -3 -152 -3v34c28 1 53 9 42 39l-61 160h-239l-13 -10l-69 -180l85 -12l-4 -28h-185zM310 500c-8 20 -16 46 -20 61l-111 -289h217zM142 793c0 29 25 54 54 54
s54 -25 54 -54s-25 -54 -54 -54s-54 25 -54 54zM373 793c0 29 25 54 54 54s54 -25 54 -54s-25 -54 -54 -54s-54 25 -54 54z" />
    <glyph glyph-name="Aring" unicode="&#xc5;" horiz-adv-x="623" 
d="M-13 0v29c42 4 59 25 67 45l237 590l41 9l222 -568c27 -68 45 -73 76 -78l-4 -27h-43c-37 0 -152 -3 -152 -3v34c28 1 53 9 42 39l-61 160h-239l-13 -10l-69 -180l85 -12l-4 -28h-185zM310 500c-8 20 -16 46 -20 61l-111 -289h217zM312 711c-64 0 -94 40 -94 81
c0 39 30 79 94 79s94 -40 94 -79c0 -41 -30 -81 -94 -81zM312 745c31 0 48 23 48 46s-15 46 -48 46c-34 0 -47 -23 -47 -46s15 -46 47 -46z" />
    <glyph glyph-name="Ccedilla" unicode="&#xc7;" horiz-adv-x="679" 
d="M314 -81c0 22 21 56 32 72c-160 19 -301 138 -301 335c0 204 151 353 366 353c75 0 164 -18 216 -23l-30 -152h-34c0 104 -88 137 -169 137c-154 0 -256 -124 -256 -286c0 -180 126 -301 289 -301c125 0 201 71 201 71l14 -21s-75 -116 -249 -116h-14
c-3 -10 -7 -24 -7 -33c0 -35 84 -27 84 -94c0 -49 -47 -98 -111 -98c-56 0 -91 36 -91 36l15 32s34 -25 70 -25c31 0 52 15 52 36c0 34 -77 37 -77 77z" />
    <glyph glyph-name="Eacute" unicode="&#xc9;" horiz-adv-x="585" 
d="M54 -3v32c45 5 72 26 72 62v478c0 48 -5 58 -82 73v25h412c41 0 72 4 72 4l-31 -167h-34c5 103 -28 124 -108 124h-131l-10 -10v-260h185l8 57l37 6v-176h-47v74h-173l-10 -10v-214c0 -30 -5 -56 -5 -56h157c86 0 98 19 148 124h34l-37 -163h-312c-50 0 -145 -3 -145 -3z
M221 756l177 105h5l33 -52v-25l-202 -61z" />
    <glyph glyph-name="Edieresis" unicode="&#xcb;" horiz-adv-x="585" 
d="M54 -3v32c45 5 72 26 72 62v478c0 48 -5 58 -82 73v25h412c41 0 72 4 72 4l-31 -167h-34c5 103 -28 124 -108 124h-131l-10 -10v-260h185l8 57l37 6v-176h-47v74h-173l-10 -10v-214c0 -30 -5 -56 -5 -56h157c86 0 98 19 148 124h34l-37 -163h-312c-50 0 -145 -3 -145 -3z
M137 793c0 29 25 54 54 54s54 -25 54 -54s-25 -54 -54 -54s-54 25 -54 54zM368 793c0 29 25 54 54 54s54 -25 54 -54s-25 -54 -54 -54s-54 25 -54 54z" />
    <glyph glyph-name="Igrave" unicode="&#xcc;" horiz-adv-x="331" 
d="M53 -3v32c44 5 72 28 72 62v478c0 48 0 58 -74 73v25h78c90 0 112 4 112 4l5 -4s-33 -38 -33 -121v-455c0 -29 -5 -51 -5 -51l95 -9l-4 -28zM33 784v25l33 52h5l177 -105l-13 -33z" />
    <glyph glyph-name="Iacute" unicode="&#xcd;" horiz-adv-x="331" 
d="M53 -3v32c44 5 72 28 72 62v478c0 48 0 58 -74 73v25h78c90 0 112 4 112 4l5 -4s-33 -38 -33 -121v-455c0 -29 -5 -51 -5 -51l95 -9l-4 -28zM76 756l177 105h5l33 -52v-25l-202 -61z" />
    <glyph glyph-name="Icircumflex" unicode="&#xce;" horiz-adv-x="331" 
d="M53 -3v32c44 5 72 28 72 62v478c0 48 0 58 -74 73v25h78c90 0 112 4 112 4l5 -4s-33 -38 -33 -121v-455c0 -29 -5 -51 -5 -51l95 -9l-4 -28zM5 741l131 130h53l130 -130l-27 -23l-128 81h-4l-128 -81z" />
    <glyph glyph-name="Idieresis" unicode="&#xcf;" horiz-adv-x="331" 
d="M17 793c0 29 25 54 54 54s54 -25 54 -54s-25 -54 -54 -54s-54 25 -54 54zM198 793c0 29 25 54 54 54s54 -25 54 -54s-25 -54 -54 -54s-54 25 -54 54zM53 -3v32c44 5 72 28 72 62v478c0 48 0 58 -74 73v25h78c90 0 112 4 112 4l5 -4s-33 -38 -33 -121v-455
c0 -29 -5 -51 -5 -51l95 -9l-4 -28z" />
    <glyph glyph-name="Ntilde" unicode="&#xd1;" horiz-adv-x="766" 
d="M55 -3v32c45 5 72 26 72 62v450c0 69 -16 89 -82 101v25h30c49 0 100 4 100 4s12 -23 37 -52l362 -418c13 -16 29 -37 40 -53v416c0 44 -1 67 -82 75v28h190l5 -14s-69 -19 -69 -102v-556h-26l-425 502c-12 14 -26 33 -36 48v-454c0 -30 -5 -54 -5 -54l90 -6l-4 -28z
M251 733l-34 7s8 113 98 113c61 0 121 -59 167 -59c45 0 55 59 55 59l35 -3s-6 -117 -107 -117c-69 0 -112 59 -158 59c-42 0 -56 -59 -56 -59z" />
    <glyph glyph-name="Oacute" unicode="&#xd3;" horiz-adv-x="795" 
d="M144 351c0 -149 94 -323 259 -323c157 0 248 158 248 304c0 150 -94 307 -260 307c-156 0 -247 -141 -247 -288zM45 325c0 180 129 354 363 354c209 0 342 -141 342 -322c0 -191 -146 -369 -367 -369c-205 0 -338 155 -338 337zM309 756l177 105h5l33 -52v-25l-202 -61z
" />
    <glyph glyph-name="Ocircumflex" unicode="&#xd4;" horiz-adv-x="795" 
d="M144 351c0 -149 94 -323 259 -323c157 0 248 158 248 304c0 150 -94 307 -260 307c-156 0 -247 -141 -247 -288zM45 325c0 180 129 354 363 354c209 0 342 -141 342 -322c0 -191 -146 -369 -367 -369c-205 0 -338 155 -338 337zM238 741l131 130h53l130 -130l-27 -23
l-128 81h-4l-128 -81z" />
    <glyph glyph-name="Odieresis" unicode="&#xd6;" horiz-adv-x="795" 
d="M144 351c0 -149 94 -323 259 -323c157 0 248 158 248 304c0 150 -94 307 -260 307c-156 0 -247 -141 -247 -288zM45 325c0 180 129 354 363 354c209 0 342 -141 342 -322c0 -191 -146 -369 -367 -369c-205 0 -338 155 -338 337zM225 793c0 29 25 54 54 54s54 -25 54 -54
s-25 -54 -54 -54s-54 25 -54 54zM456 793c0 29 25 54 54 54s54 -25 54 -54s-25 -54 -54 -54s-54 25 -54 54z" />
    <glyph glyph-name="Udieresis" unicode="&#xdc;" horiz-adv-x="735" 
d="M99 235v334c0 48 0 58 -74 73v25h78c90 0 112 4 112 4l5 -4s-33 -38 -33 -121v-303c0 -146 99 -210 199 -210s205 68 205 203v328c0 44 -1 67 -81 75v28h194l5 -14s-69 -19 -69 -102v-312c0 -163 -126 -251 -276 -251c-132 0 -265 64 -265 247zM209 793c0 29 25 54 54 54
s54 -25 54 -54s-25 -54 -54 -54s-54 25 -54 54zM440 793c0 29 25 54 54 54s54 -25 54 -54s-25 -54 -54 -54s-54 25 -54 54z" />
    <glyph glyph-name="Yacute" unicode="&#xdd;" horiz-adv-x="585" 
d="M177 -3v32c44 5 72 28 72 62v204l-192 303c-24 38 -53 44 -53 44v25h48c63 0 102 4 102 4l4 -4s-19 -38 2 -72l124 -200c10 -16 21 -39 29 -56l149 241c16 26 11 54 -40 62v25h163l4 -14s-39 -13 -69 -61l-183 -295v-206c0 -29 -5 -51 -5 -51l90 -9l-4 -28zM212 756
l177 105h5l33 -52v-25l-202 -61z" />
    <glyph glyph-name="agrave" unicode="&#xe0;" 
d="M28 89c0 96 119 146 223 162l34 5c1 21 1 79 -4 107c-7 37 -26 64 -63 64c-68 0 -106 -96 -106 -96h-32l-17 75s73 56 185 56c94 0 119 -38 119 -143v-230c0 -32 4 -47 27 -47c27 0 55 20 55 20l13 -21s-47 -53 -106 -53c-38 0 -68 22 -68 71v24s-53 -95 -156 -95
c-66 0 -104 47 -104 101zM172 45c39 0 87 38 113 60v118l-31 -5c-57 -9 -138 -39 -138 -111c0 -40 26 -62 56 -62zM88 675v27l87 -9l85 -171l-31 -17z" />
    <glyph glyph-name="aacute" unicode="&#xe1;" 
d="M28 89c0 96 119 146 223 162l34 5c1 21 1 79 -4 107c-7 37 -26 64 -63 64c-68 0 -106 -96 -106 -96h-32l-17 75s73 56 185 56c94 0 119 -38 119 -143v-230c0 -32 4 -47 27 -47c27 0 55 20 55 20l13 -21s-47 -53 -106 -53c-38 0 -68 22 -68 71v24s-53 -95 -156 -95
c-66 0 -104 47 -104 101zM172 45c39 0 87 38 113 60v118l-31 -5c-57 -9 -138 -39 -138 -111c0 -40 26 -62 56 -62zM211 505l-31 17l85 171l87 9v-27z" />
    <glyph glyph-name="acircumflex" unicode="&#xe2;" 
d="M28 89c0 96 119 146 223 162l34 5c1 21 1 79 -4 107c-7 37 -26 64 -63 64c-68 0 -106 -96 -106 -96h-32l-17 75s73 56 185 56c94 0 119 -38 119 -143v-230c0 -32 4 -47 27 -47c27 0 55 20 55 20l13 -21s-47 -53 -106 -53c-38 0 -68 22 -68 71v24s-53 -95 -156 -95
c-66 0 -104 47 -104 101zM172 45c39 0 87 38 113 60v118l-31 -5c-57 -9 -138 -39 -138 -111c0 -40 26 -62 56 -62zM85 522l116 176h39l115 -176l-30 -19l-105 116l-105 -116z" />
    <glyph glyph-name="atilde" unicode="&#xe3;" 
d="M28 89c0 96 119 146 223 162l34 5c1 21 1 79 -4 107c-7 37 -26 64 -63 64c-68 0 -106 -96 -106 -96h-32l-17 75s73 56 185 56c94 0 119 -38 119 -143v-230c0 -32 4 -47 27 -47c27 0 55 20 55 20l13 -21s-47 -53 -106 -53c-38 0 -68 22 -68 71v24s-53 -95 -156 -95
c-66 0 -104 47 -104 101zM172 45c39 0 87 38 113 60v118l-31 -5c-57 -9 -138 -39 -138 -111c0 -40 26 -62 56 -62zM75 562c0 0 -8 122 85 122c68 0 81 -73 126 -73c42 0 42 67 42 67h37s7 -126 -87 -126c-68 0 -80 73 -125 73c-41 0 -41 -63 -41 -63h-37z" />
    <glyph glyph-name="adieresis" unicode="&#xe4;" 
d="M28 89c0 96 119 146 223 162l34 5c1 21 1 79 -4 107c-7 37 -26 64 -63 64c-68 0 -106 -96 -106 -96h-32l-17 75s73 56 185 56c94 0 119 -38 119 -143v-230c0 -32 4 -47 27 -47c27 0 55 20 55 20l13 -21s-47 -53 -106 -53c-38 0 -68 22 -68 71v24s-53 -95 -156 -95
c-66 0 -104 47 -104 101zM172 45c39 0 87 38 113 60v118l-31 -5c-57 -9 -138 -39 -138 -111c0 -40 26 -62 56 -62zM129 564c-29 0 -54 25 -54 54s25 54 54 54s54 -25 54 -54s-25 -54 -54 -54zM310 564c-29 0 -54 25 -54 54s25 54 54 54s54 -25 54 -54s-25 -54 -54 -54z" />
    <glyph glyph-name="aring" unicode="&#xe5;" 
d="M28 89c0 96 119 146 223 162l34 5c1 21 1 79 -4 107c-7 37 -26 64 -63 64c-68 0 -106 -96 -106 -96h-32l-17 75s73 56 185 56c94 0 119 -38 119 -143v-230c0 -32 4 -47 27 -47c27 0 55 20 55 20l13 -21s-47 -53 -106 -53c-38 0 -68 22 -68 71v24s-53 -95 -156 -95
c-66 0 -104 47 -104 101zM220 536c-64 0 -94 43 -94 84s30 81 94 81s94 -40 94 -81s-30 -84 -94 -84zM172 45c39 0 87 38 113 60v118l-31 -5c-57 -9 -138 -39 -138 -111c0 -40 26 -62 56 -62zM220 570c31 0 48 24 48 49c0 24 -15 48 -48 48c-34 0 -47 -24 -47 -48
c0 -25 15 -49 47 -49z" />
    <glyph glyph-name="ae" unicode="&#xe6;" horiz-adv-x="709" 
d="M26 91c0 93 113 150 266 174v25c0 75 -9 137 -67 137c-71 0 -107 -96 -107 -96h-32l-17 75s73 56 184 56c67 0 95 -21 108 -67c32 40 77 67 138 67c88 0 167 -56 170 -163c0 0 -29 -9 -46 -12l-254 -45c1 -94 47 -187 162 -187c82 0 130 48 130 48l11 -21
s-57 -94 -180 -94c-85 0 -151 44 -177 130c-24 -70 -87 -130 -169 -130c-77 0 -120 46 -120 103zM171 45c45 0 120 41 120 148v36c-69 -12 -177 -37 -177 -122c0 -37 21 -62 57 -62zM484 424c-66 0 -106 -68 -114 -145l206 36s-7 109 -92 109z" />
    <glyph glyph-name="ccedilla" unicode="&#xe7;" horiz-adv-x="441" 
d="M178 -82c0 23 23 58 33 74c-114 18 -173 120 -173 224c0 121 76 246 214 246c61 0 158 -24 158 -76c0 -19 -14 -36 -38 -36c-51 0 -57 78 -127 78c-80 0 -125 -86 -125 -183c0 -96 47 -190 165 -190c75 0 116 41 116 41l11 -21s-46 -87 -162 -87h-6c-4 -10 -8 -25 -8 -34
c0 -35 84 -27 84 -94c0 -49 -47 -98 -111 -98c-56 0 -91 36 -91 36l15 32s34 -25 70 -25c31 0 52 15 52 36c0 34 -77 37 -77 77z" />
    <glyph glyph-name="egrave" unicode="&#xe8;" 
d="M38 216c0 136 90 246 211 246c86 0 171 -56 174 -166c0 0 -26 -10 -46 -13l-249 -36l-10 -12c4 -91 50 -180 162 -180c82 0 130 48 130 48l11 -21s-52 -94 -171 -94c-142 0 -212 111 -212 228zM234 424c-67 0 -105 -66 -114 -141l210 27s-8 114 -96 114zM107 675v27
l87 -9l85 -171l-31 -17z" />
    <glyph glyph-name="eacute" unicode="&#xe9;" 
d="M38 216c0 136 90 246 211 246c86 0 171 -56 174 -166c0 0 -26 -10 -46 -13l-249 -36l-10 -12c4 -91 50 -180 162 -180c82 0 130 48 130 48l11 -21s-52 -94 -171 -94c-142 0 -212 111 -212 228zM234 424c-67 0 -105 -66 -114 -141l210 27s-8 114 -96 114zM230 505l-31 17
l85 171l87 9v-27z" />
    <glyph glyph-name="ecircumflex" unicode="&#xea;" 
d="M38 216c0 136 90 246 211 246c86 0 171 -56 174 -166c0 0 -26 -10 -46 -13l-249 -36l-10 -12c4 -91 50 -180 162 -180c82 0 130 48 130 48l11 -21s-52 -94 -171 -94c-142 0 -212 111 -212 228zM234 424c-67 0 -105 -66 -114 -141l210 27s-8 114 -96 114zM104 522l116 176
h39l115 -176l-30 -19l-105 116l-105 -116z" />
    <glyph glyph-name="edieresis" unicode="&#xeb;" 
d="M38 216c0 136 90 246 211 246c86 0 171 -56 174 -166c0 0 -26 -10 -46 -13l-249 -36l-10 -12c4 -91 50 -180 162 -180c82 0 130 48 130 48l11 -21s-52 -94 -171 -94c-142 0 -212 111 -212 228zM234 424c-67 0 -105 -66 -114 -141l210 27s-8 114 -96 114zM148 564
c-29 0 -54 25 -54 54s25 54 54 54s54 -25 54 -54s-25 -54 -54 -54zM329 564c-29 0 -54 25 -54 54s25 54 54 54s54 -25 54 -54s-25 -54 -54 -54z" />
    <glyph glyph-name="igrave" unicode="&#xec;" horiz-adv-x="277" 
d="M38 -3v29c45 5 62 29 62 65v243c0 43 -1 68 -30 68h-45v27c146 34 167 47 167 47l1 -3s-11 -33 -11 -114v-268c0 -30 -5 -54 -5 -54l85 -9l-4 -25zM0 675v27l87 -9l85 -171l-31 -17z" />
    <glyph glyph-name="iacute" unicode="&#xed;" horiz-adv-x="277" 
d="M38 -3v29c45 5 62 29 62 65v243c0 43 -1 68 -30 68h-45v27c146 34 167 47 167 47l1 -3s-11 -33 -11 -114v-268c0 -30 -5 -54 -5 -54l85 -9l-4 -25zM123 505l-31 17l85 171l87 9v-27z" />
    <glyph glyph-name="icircumflex" unicode="&#xee;" horiz-adv-x="277" 
d="M38 -3v29c45 5 62 29 62 65v243c0 43 -1 68 -30 68h-45v27c146 34 167 47 167 47l1 -3s-11 -33 -11 -114v-268c0 -30 -5 -54 -5 -54l85 -9l-4 -25zM-3 522l116 176h39l115 -176l-30 -19l-105 116l-105 -116z" />
    <glyph glyph-name="idieresis" unicode="&#xef;" horiz-adv-x="277" 
d="M-8 618c0 29 25 54 54 54s54 -25 54 -54s-25 -54 -54 -54s-54 25 -54 54zM163 618c0 29 25 54 54 54s54 -25 54 -54s-25 -54 -54 -54s-54 25 -54 54zM38 -3v29c45 5 62 29 62 65v243c0 43 -1 68 -30 68h-45v27c146 34 167 47 167 47l1 -3s-11 -33 -11 -114v-268
c0 -30 -5 -54 -5 -54l85 -9l-4 -25z" />
    <glyph glyph-name="ntilde" unicode="&#xf1;" horiz-adv-x="572" 
d="M38 -3v29c45 5 62 29 62 65v243c0 43 -1 68 -30 68h-45v27c98 20 160 47 160 47l3 -3s-9 -33 -10 -122c36 54 106 111 190 111c69 0 114 -38 114 -135v-236c0 -30 -5 -53 -5 -53l85 -10l-4 -25l-215 -6v29c45 5 57 29 57 65v214c0 76 -29 96 -69 96
c-46 0 -107 -27 -149 -70v-240c0 -30 -5 -53 -5 -53l80 -10l-4 -25zM146 562c0 0 -8 122 85 122c68 0 81 -73 126 -73c42 0 42 67 42 67h37s7 -126 -87 -126c-68 0 -80 73 -125 73c-41 0 -41 -63 -41 -63h-37z" />
    <glyph glyph-name="ograve" unicode="&#xf2;" horiz-adv-x="532" 
d="M38 215c0 117 65 247 235 247c146 0 221 -96 221 -219c0 -124 -77 -255 -237 -255c-141 0 -219 99 -219 227zM130 238c0 -100 41 -216 141 -216c85 0 131 86 131 193c0 99 -40 213 -141 213c-92 0 -131 -94 -131 -190zM132 675v27l87 -9l85 -171l-31 -17z" />
    <glyph glyph-name="oacute" unicode="&#xf3;" horiz-adv-x="532" 
d="M38 215c0 117 65 247 235 247c146 0 221 -96 221 -219c0 -124 -77 -255 -237 -255c-141 0 -219 99 -219 227zM130 238c0 -100 41 -216 141 -216c85 0 131 86 131 193c0 99 -40 213 -141 213c-92 0 -131 -94 -131 -190zM255 505l-31 17l85 171l87 9v-27z" />
    <glyph glyph-name="ocircumflex" unicode="&#xf4;" horiz-adv-x="532" 
d="M38 215c0 117 65 247 235 247c146 0 221 -96 221 -219c0 -124 -77 -255 -237 -255c-141 0 -219 99 -219 227zM130 238c0 -100 41 -216 141 -216c85 0 131 86 131 193c0 99 -40 213 -141 213c-92 0 -131 -94 -131 -190zM129 522l116 176h39l115 -176l-30 -19l-105 116
l-105 -116z" />
    <glyph glyph-name="otilde" unicode="&#xf5;" horiz-adv-x="532" 
d="M38 215c0 117 65 247 235 247c146 0 221 -96 221 -219c0 -124 -77 -255 -237 -255c-141 0 -219 99 -219 227zM130 238c0 -100 41 -216 141 -216c85 0 131 86 131 193c0 99 -40 213 -141 213c-92 0 -131 -94 -131 -190zM119 562c0 0 -8 122 85 122c68 0 81 -73 126 -73
c42 0 42 67 42 67h37s7 -126 -87 -126c-68 0 -80 73 -125 73c-41 0 -41 -63 -41 -63h-37z" />
    <glyph glyph-name="odieresis" unicode="&#xf6;" horiz-adv-x="532" 
d="M38 215c0 117 65 247 235 247c146 0 221 -96 221 -219c0 -124 -77 -255 -237 -255c-141 0 -219 99 -219 227zM130 238c0 -100 41 -216 141 -216c85 0 131 86 131 193c0 99 -40 213 -141 213c-92 0 -131 -94 -131 -190zM173 564c-29 0 -54 25 -54 54s25 54 54 54
s54 -25 54 -54s-25 -54 -54 -54zM354 564c-29 0 -54 25 -54 54s25 54 54 54s54 -25 54 -54s-25 -54 -54 -54z" />
    <glyph glyph-name="ugrave" unicode="&#xf9;" horiz-adv-x="559" 
d="M86 122v212c0 43 -1 68 -30 68h-35v28c97 17 152 37 152 37l4 -3s-9 -28 -9 -105v-214c0 -76 27 -96 68 -96c46 0 102 27 145 71v214c0 43 -1 68 -30 68h-33v28c96 17 150 37 150 37l4 -3s-9 -28 -9 -105v-264c0 -57 23 -57 56 -57h28l-3 -27c-109 -11 -164 -20 -164 -20
l-4 3s9 29 9 54v52c-36 -53 -102 -112 -186 -112c-70 0 -113 38 -113 134zM142 675v27l87 -9l85 -171l-31 -17z" />
    <glyph glyph-name="uacute" unicode="&#xfa;" horiz-adv-x="559" 
d="M86 122v212c0 43 -1 68 -30 68h-35v28c97 17 152 37 152 37l4 -3s-9 -28 -9 -105v-214c0 -76 27 -96 68 -96c46 0 102 27 145 71v214c0 43 -1 68 -30 68h-33v28c96 17 150 37 150 37l4 -3s-9 -28 -9 -105v-264c0 -57 23 -57 56 -57h28l-3 -27c-109 -11 -164 -20 -164 -20
l-4 3s9 29 9 54v52c-36 -53 -102 -112 -186 -112c-70 0 -113 38 -113 134zM265 505l-31 17l85 171l87 9v-27z" />
    <glyph glyph-name="ucircumflex" unicode="&#xfb;" horiz-adv-x="559" 
d="M86 122v212c0 43 -1 68 -30 68h-35v28c97 17 152 37 152 37l4 -3s-9 -28 -9 -105v-214c0 -76 27 -96 68 -96c46 0 102 27 145 71v214c0 43 -1 68 -30 68h-33v28c96 17 150 37 150 37l4 -3s-9 -28 -9 -105v-264c0 -57 23 -57 56 -57h28l-3 -27c-109 -11 -164 -20 -164 -20
l-4 3s9 29 9 54v52c-36 -53 -102 -112 -186 -112c-70 0 -113 38 -113 134zM139 522l116 176h39l115 -176l-30 -19l-105 116l-105 -116z" />
    <glyph glyph-name="udieresis" unicode="&#xfc;" horiz-adv-x="559" 
d="M86 122v212c0 43 -1 68 -30 68h-35v28c97 17 152 37 152 37l4 -3s-9 -28 -9 -105v-214c0 -76 27 -96 68 -96c46 0 102 27 145 71v214c0 43 -1 68 -30 68h-33v28c96 17 150 37 150 37l4 -3s-9 -28 -9 -105v-264c0 -57 23 -57 56 -57h28l-3 -27c-109 -11 -164 -20 -164 -20
l-4 3s9 29 9 54v52c-36 -53 -102 -112 -186 -112c-70 0 -113 38 -113 134zM183 564c-29 0 -54 25 -54 54s25 54 54 54s54 -25 54 -54s-25 -54 -54 -54zM364 564c-29 0 -54 25 -54 54s25 54 54 54s54 -25 54 -54s-25 -54 -54 -54z" />
    <glyph glyph-name="yacute" unicode="&#xfd;" horiz-adv-x="461" 
d="M71 -154c53 0 88 34 106 75l32 75c-5 14 -13 37 -24 65l-128 306c-21 50 -56 58 -56 58v25h47c63 0 102 4 102 4l4 -4c-12 -24 -12 -65 -1 -92l81 -203c6 -17 14 -42 19 -60l113 258c17 40 -18 62 -55 72v25h139l5 -16s-18 -10 -36 -53l-173 -393
c-27 -60 -84 -225 -180 -225c-29 0 -44 20 -44 42c0 20 13 41 49 41zM232 505l-31 17l85 171l87 9v-27z" />
    <glyph glyph-name="ydieresis" unicode="&#xff;" horiz-adv-x="461" 
d="M71 -154c53 0 88 34 106 75l32 75c-5 14 -13 37 -24 65l-128 306c-21 50 -56 58 -56 58v25h47c63 0 102 4 102 4l4 -4c-12 -24 -12 -65 -1 -92l81 -203c6 -17 14 -42 19 -60l113 258c17 40 -18 62 -55 72v25h139l5 -16s-18 -10 -36 -53l-173 -393
c-27 -60 -84 -225 -180 -225c-29 0 -44 20 -44 42c0 20 13 41 49 41zM331 564c-29 0 -54 25 -54 54s25 54 54 54s54 -25 54 -54s-25 -54 -54 -54zM150 564c-29 0 -54 25 -54 54s25 54 54 54s54 -25 54 -54s-25 -54 -54 -54z" />
    <glyph glyph-name="Scaron" unicode="&#x160;" horiz-adv-x="506" 
d="M44 91c0 15 4 29 23 89h34c0 -122 77 -154 145 -154c65 0 127 28 127 105c0 174 -313 171 -313 374c0 99 75 174 223 174c71 0 143 -16 165 -19l-31 -156h-34c10 75 -28 137 -112 137c-67 0 -124 -31 -124 -104c0 -175 313 -158 313 -373c0 -120 -103 -176 -223 -176
c-87 0 -193 30 -193 103zM106 848l27 23l128 -81h4l128 81l27 -23l-130 -130h-53z" />
    <glyph glyph-name="scaron" unicode="&#x161;" horiz-adv-x="386" 
d="M39 56c0 20 13 76 13 76h30c6 -85 65 -110 113 -110c49 0 83 26 83 68c0 107 -229 100 -229 245c0 74 57 127 163 127c60 0 125 -18 125 -18l-20 -103h-31c0 82 -69 87 -90 87c-54 0 -75 -33 -75 -64c0 -106 228 -87 228 -245c0 -83 -65 -131 -160 -131
c-46 0 -150 11 -150 68zM180 523l-116 166l30 19l105 -108l105 108l30 -19l-115 -166h-39z" />
    <glyph glyph-name="Ydieresis" unicode="&#x178;" horiz-adv-x="585" 
d="M177 -3v32c44 5 72 28 72 62v204l-192 303c-24 38 -53 44 -53 44v25h48c63 0 102 4 102 4l4 -4s-19 -38 2 -72l124 -200c10 -16 21 -39 29 -56l149 241c16 26 11 54 -40 62v25h163l4 -14s-39 -13 -69 -61l-183 -295v-206c0 -29 -5 -51 -5 -51l90 -9l-4 -28zM359 793
c0 29 25 54 54 54s54 -25 54 -54s-25 -54 -54 -54s-54 25 -54 54zM128 793c0 29 25 54 54 54s54 -25 54 -54s-25 -54 -54 -54s-54 25 -54 54z" />
    <glyph glyph-name="Zcaron" unicode="&#x17d;" horiz-adv-x="610" 
d="M34 -4l-6 36s21 22 55 71l334 476c11 15 26 34 39 49h-220c-82 0 -109 -21 -147 -124h-34l25 163h410c39 0 64 4 64 4l4 -36s-14 -20 -50 -71l-331 -476c-11 -16 -27 -35 -40 -49h252c86 0 102 31 152 144h34l-41 -183h-436c-39 0 -64 -4 -64 -4zM162 848l27 23l128 -81
h4l128 81l27 -23l-130 -130h-53z" />
    <glyph glyph-name="zcaron" unicode="&#x17e;" horiz-adv-x="439" 
d="M40 -4l-8 26s11 10 36 48l194 299c9 14 24 33 36 48h-133c-61 0 -88 -57 -96 -85h-29l18 118h263c43 0 68 4 68 4l8 -26s-4 -2 -34 -48l-189 -296c-10 -16 -25 -35 -37 -50h122c97 0 119 100 119 100h29l-27 -134h-272c-43 0 -68 -4 -68 -4zM216 523l-116 166l30 19
l105 -108l105 108l30 -19l-115 -166h-39z" />
    <glyph glyph-name="florin" unicode="&#x192;" horiz-adv-x="455" 
d="M47 303v40h136c34 241 92 336 213 336c41 0 82 -9 82 -45c0 -24 -20 -38 -41 -38c-47 0 -69 31 -102 31c-28 0 -41 -16 -71 -284h154l-14 -40h-144c-2 -13 -3 -25 -4 -38c-37 -346 -95 -464 -228 -464c-41 0 -82 9 -82 45c0 24 20 38 41 38c47 0 69 -31 102 -31
c30 0 44 21 85 412l4 38h-131z" />
    <glyph glyph-name="circumflex" unicode="&#x2c6;" horiz-adv-x="500" 
d="M115 522l116 176h39l115 -176l-30 -19l-105 116l-105 -116z" />
    <glyph glyph-name="tilde" unicode="&#x2dc;" horiz-adv-x="500" 
d="M105 562c0 0 -8 122 85 122c68 0 81 -73 126 -73c42 0 42 67 42 67h37s7 -126 -87 -126c-68 0 -80 73 -125 73c-41 0 -41 -63 -41 -63h-37z" />
    <glyph glyph-name="Euro" unicode="&#x20ac;" horiz-adv-x="529" 
d="M33 198v40h51c-1 8 -1 16 -1 24c0 14 1 29 2 44h-52v40h59c28 117 113 219 249 219c78 0 159 -33 159 -33l-32 -107h-30c0 63 -26 102 -108 102c-89 0 -139 -84 -152 -181h267l-12 -40h-258v-11c0 -19 1 -39 4 -57h235l-12 -40h-215c22 -86 75 -155 160 -155
c90 0 134 33 134 33l14 -22s-60 -66 -168 -66c-140 0 -217 96 -238 210h-56z" />
    <glyph glyph-name="ellipsis" unicode="&#x2026;" horiz-adv-x="774" 
d="M57 48c0 33 27 60 60 60s60 -27 60 -60s-27 -60 -60 -60s-60 27 -60 60zM327 48c0 33 27 60 60 60s60 -27 60 -60s-27 -60 -60 -60s-60 27 -60 60zM597 48c0 33 27 60 60 60s60 -27 60 -60s-27 -60 -60 -60s-60 27 -60 60z" />
    <glyph glyph-name="germandbls" unicode="&#xdf;" horiz-adv-x="555" 
d="M37 -3v29c45 5 62 29 62 62v311h-63v30l63 22v23c0 112 59 244 215 244c88 0 147 -45 147 -114c0 -84 -111 -138 -111 -211c0 -97 184 -124 184 -265c0 -95 -83 -140 -164 -140c-49 0 -133 17 -133 73c0 24 14 56 14 56h30c10 -66 43 -95 90 -95c39 0 90 20 90 73
c0 100 -176 131 -176 258c0 94 98 133 98 222c0 64 -41 101 -96 101c-75 0 -106 -70 -106 -185v-438c0 -30 4 -48 4 -48l-3 -3z" />
    <glyph glyph-name="slash" unicode="/" horiz-adv-x="352" 
d="M-26 -196l333 863h64l-332 -863h-65z" />
    <glyph glyph-name="Acircumflex" unicode="&#xc2;" horiz-adv-x="623" 
d="M-13 0v29c42 4 59 25 67 45l237 590l41 9l222 -568c27 -68 45 -73 76 -78l-4 -27h-43c-37 0 -152 -3 -152 -3v34c28 1 53 9 42 39l-61 160h-239l-13 -10l-69 -180l85 -12l-4 -28h-185zM310 500c-8 20 -16 46 -20 61l-111 -289h217zM155 741l131 130h53l130 -130l-27 -23
l-128 81h-4l-128 -81z" />
    <glyph glyph-name="Ecircumflex" unicode="&#xca;" horiz-adv-x="585" 
d="M54 -3v32c45 5 72 26 72 62v478c0 48 -5 58 -82 73v25h412c41 0 72 4 72 4l-31 -167h-34c5 103 -28 124 -108 124h-131l-10 -10v-260h185l8 57l37 6v-176h-47v74h-173l-10 -10v-214c0 -30 -5 -56 -5 -56h157c86 0 98 19 148 124h34l-37 -163h-312c-50 0 -145 -3 -145 -3z
M150 741l131 130h53l130 -130l-27 -23l-128 81h-4l-128 -81z" />
    <glyph glyph-name="Aacute" unicode="&#xc1;" horiz-adv-x="623" 
d="M-13 0v29c42 4 59 25 67 45l237 590l41 9l222 -568c27 -68 45 -73 76 -78l-4 -27h-43c-37 0 -152 -3 -152 -3v34c28 1 53 9 42 39l-61 160h-239l-13 -10l-69 -180l85 -12l-4 -28h-185zM310 500c-8 20 -16 46 -20 61l-111 -289h217zM226 756l177 105h5l33 -52v-25
l-202 -61z" />
    <glyph glyph-name="Egrave" unicode="&#xc8;" horiz-adv-x="585" 
d="M54 -3v32c45 5 72 26 72 62v478c0 48 -5 58 -82 73v25h412c41 0 72 4 72 4l-31 -167h-34c5 103 -28 124 -108 124h-131l-10 -10v-260h185l8 57l37 6v-176h-47v74h-173l-10 -10v-214c0 -30 -5 -56 -5 -56h157c86 0 98 19 148 124h34l-37 -163h-312c-50 0 -145 -3 -145 -3z
M178 784v25l33 52h5l177 -105l-13 -33z" />
    <glyph glyph-name="Ograve" unicode="&#xd2;" horiz-adv-x="795" 
d="M144 351c0 -149 94 -323 259 -323c157 0 248 158 248 304c0 150 -94 307 -260 307c-156 0 -247 -141 -247 -288zM45 325c0 180 129 354 363 354c209 0 342 -141 342 -322c0 -191 -146 -369 -367 -369c-205 0 -338 155 -338 337zM266 784v25l33 52h5l177 -105l-13 -33z
" />
    <glyph glyph-name="Uacute" unicode="&#xda;" horiz-adv-x="735" 
d="M99 235v334c0 48 0 58 -74 73v25h78c90 0 112 4 112 4l5 -4s-33 -38 -33 -121v-303c0 -146 99 -210 199 -210s205 68 205 203v328c0 44 -1 67 -81 75v28h194l5 -14s-69 -19 -69 -102v-312c0 -163 -126 -251 -276 -251c-132 0 -265 64 -265 247zM293 756l177 105h5l33 -52
v-25l-202 -61z" />
    <glyph glyph-name="Ucircumflex" unicode="&#xdb;" horiz-adv-x="735" 
d="M99 235v334c0 48 0 58 -74 73v25h78c90 0 112 4 112 4l5 -4s-33 -38 -33 -121v-303c0 -146 99 -210 199 -210s205 68 205 203v328c0 44 -1 67 -81 75v28h194l5 -14s-69 -19 -69 -102v-312c0 -163 -126 -251 -276 -251c-132 0 -265 64 -265 247zM222 741l131 130h53
l130 -130l-27 -23l-128 81h-4l-128 -81z" />
    <glyph glyph-name="Ugrave" unicode="&#xd9;" horiz-adv-x="735" 
d="M99 235v334c0 48 0 58 -74 73v25h78c90 0 112 4 112 4l5 -4s-33 -38 -33 -121v-303c0 -146 99 -210 199 -210s205 68 205 203v328c0 44 -1 67 -81 75v28h194l5 -14s-69 -19 -69 -102v-312c0 -163 -126 -251 -276 -251c-132 0 -265 64 -265 247zM250 784v25l33 52h5
l177 -105l-13 -33z" />
    <glyph glyph-name="Agrave" unicode="&#xc0;" horiz-adv-x="623" 
d="M-13 0v29c42 4 59 25 67 45l237 590l41 9l222 -568c27 -68 45 -73 76 -78l-4 -27h-43c-37 0 -152 -3 -152 -3v34c28 1 53 9 42 39l-61 160h-239l-13 -10l-69 -180l85 -12l-4 -28h-185zM310 500c-8 20 -16 46 -20 61l-111 -289h217zM183 784v25l33 52h5l177 -105l-13 -33z
" />
    <glyph glyph-name="Atilde" unicode="&#xc3;" horiz-adv-x="623" 
d="M-13 0v29c42 4 59 25 67 45l237 590l41 9l222 -568c27 -68 45 -73 76 -78l-4 -27h-43c-37 0 -152 -3 -152 -3v34c28 1 53 9 42 39l-61 160h-239l-13 -10l-69 -180l85 -12l-4 -28h-185zM310 500c-8 20 -16 46 -20 61l-111 -289h217zM169 733l-34 7s8 113 98 113
c61 0 121 -59 167 -59c45 0 55 59 55 59l35 -3s-6 -117 -107 -117c-69 0 -112 59 -158 59c-42 0 -56 -59 -56 -59z" />
    <glyph glyph-name="Otilde" unicode="&#xd5;" horiz-adv-x="795" 
d="M144 351c0 -149 94 -323 259 -323c157 0 248 158 248 304c0 150 -94 307 -260 307c-156 0 -247 -141 -247 -288zM45 325c0 180 129 354 363 354c209 0 342 -141 342 -322c0 -191 -146 -369 -367 -369c-205 0 -338 155 -338 337zM252 733l-34 7s8 113 98 113
c61 0 121 -59 167 -59c45 0 55 59 55 59l35 -3s-6 -117 -107 -117c-69 0 -112 59 -158 59c-42 0 -56 -59 -56 -59z" />
    <glyph glyph-name="questiondown" unicode="&#xbf;" horiz-adv-x="327" 
d="M221 274c4 -18 5 -34 5 -50c0 -135 -123 -192 -123 -250c0 -68 191 -137 191 -137l-16 -88s-267 93 -267 203c0 84 185 147 185 322h25zM265 402c0 -33 -27 -60 -60 -60s-60 27 -60 60s27 60 60 60s60 -27 60 -60z" />
    <glyph glyph-name="exclamdown" unicode="&#xa1;" horiz-adv-x="273" 
d="M150 274l44 -480c-89 -24 -116 -36 -116 -36l-3 3s11 32 17 108l33 405h25zM199 402c0 -33 -27 -60 -60 -60s-60 27 -60 60s27 60 60 60s60 -27 60 -60z" />
    <glyph glyph-name="percent" unicode="%" horiz-adv-x="717" 
d="M32 507c0 83 68 150 151 150s151 -67 151 -150s-68 -150 -151 -150s-151 67 -151 150zM86 507c0 -55 43 -103 97 -103s97 48 97 103s-43 103 -97 103s-97 -48 -97 -103zM100 0l467 672l39 -27l-449 -645h-57zM386 137c0 83 68 150 151 150s151 -67 151 -150
s-68 -150 -151 -150s-151 67 -151 150zM440 137c0 -55 43 -103 97 -103s97 48 97 103s-43 103 -97 103s-97 -48 -97 -103z" />
    <glyph glyph-name="multiply" unicode="&#xd7;" horiz-adv-x="520" 
d="M35 436l39 41l186 -187l186 187l39 -41l-185 -186l185 -185l-40 -41l-185 186l-185 -186l-40 41l185 185z" />
    <glyph glyph-name="backslash" unicode="\" horiz-adv-x="352" 
d="M313 -196l-332 863h64l333 -863h-65z" />
    <glyph glyph-name="less" unicode="&#x3c;" horiz-adv-x="520" 
d="M28 226v46l426 229l15 -58l-369 -194l369 -204l-15 -57z" />
    <glyph glyph-name="greater" unicode="&#x3e;" horiz-adv-x="520" 
d="M50 45l369 204l-369 194l15 58l426 -229v-46l-426 -238z" />
    <glyph glyph-name="quotesingle" unicode="'" horiz-adv-x="186" 
d="M62 431v236h79v-37l-37 -199h-42z" />
    <glyph glyph-name="quotedbl" unicode="&#x22;" horiz-adv-x="342" 
d="M62 431v236h81v-37l-43 -199h-38zM218 431v236h81v-37l-43 -199h-38z" />
    <glyph glyph-name="dagger" unicode="&#x2020;" horiz-adv-x="520" 
d="M77 371c-33 0 -46 25 -46 45s13 46 46 46c27 0 93 -22 162 -27c-2 77 -25 156 -25 186c0 33 26 46 46 46s45 -13 45 -46c0 -30 -23 -109 -24 -186c69 5 135 27 162 27c33 0 46 -26 46 -46s-13 -45 -46 -45c-27 0 -93 20 -162 26v-296c2 -80 24 -164 24 -194
c0 -33 -25 -46 -45 -46s-46 13 -46 46c0 31 25 114 25 194v296c-69 -6 -135 -26 -162 -26z" />
    <glyph glyph-name="daggerdbl" unicode="&#x2021;" horiz-adv-x="520" 
d="M77 371c-33 0 -46 25 -46 45s13 46 46 46c27 0 93 -22 162 -27c-3 80 -25 156 -25 186c0 33 26 46 46 46s45 -13 45 -46c0 -30 -23 -109 -24 -186c69 5 135 27 162 27c33 0 46 -26 46 -46s-13 -45 -46 -45c-27 0 -93 20 -162 26v-261c69 5 135 27 162 27
c33 0 46 -26 46 -46s-13 -45 -46 -45c-27 0 -93 20 -162 26c2 -85 24 -161 24 -191c0 -33 -25 -46 -45 -46s-46 13 -46 46c0 30 22 106 25 191c-69 -6 -135 -26 -162 -26c-33 0 -46 25 -46 45s13 46 46 46c27 0 93 -22 162 -27v261c-69 -6 -135 -26 -162 -26z" />
    <glyph glyph-name="perthousand" unicode="&#x2030;" horiz-adv-x="1075" 
d="M35 507c0 83 68 150 151 150s151 -67 151 -150s-68 -150 -151 -150s-151 67 -151 150zM89 507c0 -55 43 -103 97 -103s97 48 97 103s-43 103 -97 103s-97 -48 -97 -103zM103 0l467 672l39 -27l-449 -645h-57zM389 137c0 83 68 150 151 150s151 -67 151 -150
s-68 -150 -151 -150s-151 67 -151 150zM443 137c0 -55 43 -103 97 -103s97 48 97 103s-43 103 -97 103s-97 -48 -97 -103zM746 137c0 83 68 150 151 150s151 -67 151 -150s-68 -150 -151 -150s-151 67 -151 150zM800 137c0 -55 43 -103 97 -103s97 48 97 103
s-43 103 -97 103s-97 -48 -97 -103z" />
    <glyph glyph-name="registered" unicode="&#xae;" horiz-adv-x="418" 
d="M209 358c-95 0 -173 78 -173 173s78 173 173 173s173 -78 173 -173s-78 -173 -173 -173zM209 387c75 0 139 66 139 144s-64 143 -139 143c-77 0 -139 -65 -139 -143s62 -144 139 -144zM129 446v15c11 1 18 7 18 15v111c0 12 -2 14 -21 19v12h74c54 0 72 -19 72 -42
c0 -19 -19 -35 -33 -44c0 0 5 -9 14 -23l22 -32c11 -15 19 -15 26 -16l-1 -14l-53 -1s-5 13 -16 30l-27 40h-17v-40c0 -7 -2 -12 -2 -12l25 -3l-1 -13zM187 601v-68h22c5 1 21 10 21 35c0 19 -10 33 -34 33h-9z" />
    <glyph glyph-name="copyright" unicode="&#xa9;" horiz-adv-x="760" 
d="M35 333c0 190 155 345 345 345s345 -155 345 -345s-155 -345 -345 -345s-345 155 -345 345zM81 333c0 -168 131 -304 299 -304s299 136 299 304s-131 304 -299 304s-299 -136 -299 -304zM182 329c0 101 68 213 214 213c51 0 99 -21 126 -27l-17 -106h-31
c0 84 -49 98 -93 98c-73 0 -122 -70 -122 -154c0 -106 65 -170 150 -170c67 0 118 49 118 49l11 -29c-30 -43 -100 -70 -148 -70c-109 0 -208 74 -208 196z" />
    <glyph glyph-name="paragraph" unicode="&#xb6;" horiz-adv-x="643" 
d="M177 -196c0 32 25 43 43 43c16 0 32 -8 46 -8c52 0 59 69 59 176v144h-14c-201 0 -291 124 -291 253c0 127 95 255 286 255h216c37 0 59 0 79 4l-9 -56h-74v-615h-57v615h-75v-530c0 -112 -4 -141 -10 -165c-20 -82 -71 -157 -152 -157c-34 0 -47 24 -47 41z" />
    <glyph glyph-name="section" unicode="&#xa7;" horiz-adv-x="468" 
d="M33 -146c0 0 40 -38 126 -38c121 0 153 109 133 222l-52 286c-12 65 -38 202 51 236l5 -5c-15 -44 -14 -99 -4 -154l63 -355c25 -139 -27 -283 -176 -283c-101 0 -162 64 -162 64zM151 41l-63 355c-25 139 27 283 176 283c101 0 162 -64 162 -64l-16 -27s-40 38 -126 38
c-121 0 -153 -109 -133 -222l52 -286c12 -65 38 -202 -51 -236l-5 5c15 44 14 99 4 154z" />
    <glyph glyph-name="bullet" unicode="&#x2022;" horiz-adv-x="378" 
d="M189 118c-78 0 -138 60 -138 138s60 138 138 138s138 -60 138 -138s-60 -138 -138 -138z" />
    <glyph glyph-name="oe" unicode="&#x153;" horiz-adv-x="832" 
d="M38 215c0 117 65 247 235 247c87 0 147 -37 179 -96c38 59 99 96 169 96c86 0 171 -56 174 -166c0 0 -26 -10 -46 -13l-248 -37l-11 -12c4 -91 50 -179 162 -179c82 0 130 48 130 48l11 -21s-56 -94 -179 -94c-79 0 -134 39 -167 97c-39 -57 -102 -97 -190 -97
c-141 0 -219 99 -219 227zM130 238c0 -100 41 -216 141 -216c85 0 131 86 131 193c0 99 -40 213 -141 213c-92 0 -131 -94 -131 -190zM606 424c-67 0 -105 -66 -114 -141l210 27s-8 114 -96 114z" />
    <glyph glyph-name="OE" unicode="&#x152;" horiz-adv-x="992" 
d="M45 323c0 180 134 356 366 356c59 0 108 -12 159 -12h293c41 0 72 4 72 4l-31 -167h-34c5 103 -28 124 -108 124h-131l-10 -10v-260h185l8 57l37 6v-176h-47v74h-173l-10 -10v-214c0 -30 -5 -56 -5 -56h157c86 0 98 19 148 124h34l-37 -163h-352c-71 0 -106 -12 -168 -12
c-218 0 -353 155 -353 335zM144 353c0 -151 90 -325 282 -325c28 0 107 4 107 63v488c0 57 -79 60 -110 60c-195 0 -279 -141 -279 -286z" />
    <glyph glyph-name="AE" unicode="&#xc6;" horiz-adv-x="880" 
d="M-19 0v29c42 4 56 26 67 45l284 511c15 28 9 43 -48 57v25h467c41 0 72 4 72 4l-31 -167h-34c5 103 -28 124 -108 124h-131l-10 -10v-270h185l8 67l37 6v-176h-47v64h-173l-10 -10v-204c0 -30 -5 -56 -5 -56h157c86 0 98 19 148 124h34l-37 -163h-312
c-50 0 -145 -3 -145 -3v32c45 5 72 26 72 62v218h-181l-15 -10l-143 -259l85 -12l-4 -28h-182zM381 580l-129 -232h169v274c-15 -6 -27 -18 -40 -42z" />
    <glyph glyph-name="underscore" unicode="_" horiz-adv-x="524" 
d="M12 -37h500v-49h-500v49z" />
    <glyph glyph-name="endash" unicode="&#x2013;" horiz-adv-x="536" 
d="M63 226v55h410v-55h-410z" />
    <glyph glyph-name="emdash" unicode="&#x2014;" horiz-adv-x="926" 
d="M63 226v55h800v-55h-800z" />
    <glyph glyph-name="divide" unicode="&#xf7;" horiz-adv-x="520" 
d="M36 223v55h448v-55h-448zM200 59c0 33 27 60 60 60s60 -27 60 -60s-27 -60 -60 -60s-60 27 -60 60zM260 382c-33 0 -60 27 -60 60s27 60 60 60s60 -27 60 -60s-27 -60 -60 -60z" />
    <glyph glyph-name="guilsinglleft" unicode="&#x2039;" horiz-adv-x="329" 
d="M37 249v4c21 15 28 18 218 209l29 -10c-120 -189 -131 -201 -131 -201s11 -14 131 -201l-29 -10c-180 181 -195 193 -218 209z" />
    <glyph glyph-name="guilsinglright" unicode="&#x203a;" horiz-adv-x="329" 
d="M45 50c120 187 131 201 131 201s-11 12 -131 201l29 10c190 -191 197 -194 218 -209v-4c-23 -16 -38 -28 -218 -209z" />
    <glyph glyph-name="guillemotleft" unicode="&#xab;" horiz-adv-x="519" 
d="M37 249v4c21 15 27 18 213 209l29 -10c-120 -189 -131 -201 -131 -201s11 -14 131 -201l-29 -10c-176 181 -191 193 -213 209zM232 249v4c21 15 27 18 213 209l29 -10c-120 -189 -131 -201 -131 -201s11 -14 131 -201l-29 -10c-176 181 -191 193 -213 209z" />
    <glyph glyph-name="guillemotright" unicode="&#xbb;" horiz-adv-x="519" 
d="M240 50c120 187 131 201 131 201s-11 12 -131 201l29 10c186 -191 192 -194 213 -209v-4c-22 -16 -37 -28 -213 -209zM45 50c120 187 131 201 131 201s-11 12 -131 201l29 10c186 -191 192 -194 213 -209v-4c-22 -16 -37 -28 -213 -209z" />
    <glyph glyph-name="trademark" unicode="&#x2122;" horiz-adv-x="713" 
d="M102 397v20c18 1 28 12 28 26v199h-25c-25 0 -38 -10 -56 -50h-22l13 77s16 -2 34 -2h183c16 0 34 2 34 2l-12 -77h-21c0 40 -14 50 -44 50h-29v-199c0 -12 -2 -22 -2 -22l40 -4l-1 -18zM305 397v20c17 1 28 11 29 25l8 178c1 19 -2 23 -33 30v17h35c41 0 76 2 76 2l1 -2
s6 -18 13 -37l43 -124l6 -23l59 156l10 28h12c52 0 73 2 73 2l2 -2s-13 -17 -12 -51l8 -176c0 -11 -1 -20 -1 -20l36 -3l-3 -18l-115 -2v20c18 1 28 10 28 23l-7 197l-90 -239l-25 4l-85 230l-8 -190c0 -12 -2 -22 -2 -22l37 -3l-2 -18z" />
    <glyph glyph-name="periodcentered" unicode="&#xb7;" horiz-adv-x="252" 
d="M126 194c-33 0 -60 27 -60 60s27 60 60 60s60 -27 60 -60s-27 -60 -60 -60z" />
    <glyph glyph-name="oslash" unicode="&#xf8;" horiz-adv-x="532" 
d="M50 -30l55 73c-44 41 -67 102 -67 172c0 117 65 247 235 247c48 0 89 -11 121 -30l36 48h52l-54 -72c44 -40 66 -99 66 -165c0 -124 -77 -255 -237 -255c-47 0 -86 11 -119 30l-35 -48h-53zM130 238c0 -44 7 -90 24 -128l201 270c-22 29 -53 48 -94 48
c-92 0 -131 -94 -131 -190zM402 215c0 42 -8 87 -24 125l-201 -270c22 -30 53 -48 94 -48c85 0 131 86 131 193z" />
    <glyph glyph-name="quoteright" unicode="&#x2019;" horiz-adv-x="201" 
d="M44 656v35l77 41c31 -29 46 -64 46 -101c0 -53 -33 -110 -99 -154l-22 24c42 33 65 62 65 87s-22 46 -67 68z" />
    <glyph glyph-name="quoteleft" unicode="&#x2018;" horiz-adv-x="202" 
d="M43 577c0 53 33 110 99 154l22 -24c-42 -33 -65 -62 -65 -87s22 -46 67 -68v-35l-77 -41c-31 29 -46 64 -46 101z" />
    <glyph glyph-name="quotedblright" unicode="&#x201d;" horiz-adv-x="363" 
d="M44 656v35l77 41c31 -29 46 -64 46 -101c0 -53 -33 -110 -99 -154l-22 24c42 33 65 62 65 87s-22 46 -67 68zM206 656v35l77 41c31 -29 46 -64 46 -101c0 -53 -33 -110 -99 -154l-22 24c42 33 65 62 65 87s-22 46 -67 68z" />
    <glyph glyph-name="quotedblleft" unicode="&#x201c;" horiz-adv-x="364" 
d="M205 577c0 53 33 110 99 154l22 -24c-42 -33 -65 -62 -65 -87s22 -46 67 -68v-35l-77 -41c-31 29 -46 64 -46 101zM43 577c0 53 33 110 99 154l22 -24c-42 -33 -65 -62 -65 -87s22 -46 67 -68v-35l-77 -41c-31 29 -46 64 -46 101z" />
    <glyph glyph-name="quotesinglbase" unicode="&#x201a;" horiz-adv-x="233" 
d="M55 43v35l77 41c31 -29 46 -64 46 -101c0 -53 -33 -110 -99 -154l-22 24c42 33 65 62 65 87s-22 46 -67 68z" />
    <glyph glyph-name="quotedblbase" unicode="&#x201e;" horiz-adv-x="393" 
d="M55 43v35l77 41c31 -29 46 -64 46 -101c0 -53 -33 -110 -99 -154l-22 24c42 33 65 62 65 87s-22 46 -67 68zM215 43v35l77 41c31 -29 46 -64 46 -101c0 -53 -33 -110 -99 -154l-22 24c42 33 65 62 65 87s-22 46 -67 68z" />
    <glyph glyph-name="mu" unicode="&#xb5;" horiz-adv-x="540" 
d="M73 -57v393c0 63 -7 105 -7 105l92 21l4 -3s-7 -28 -7 -105v-209c0 -76 28 -96 63 -96c50 0 102 28 145 71v216c0 63 -7 105 -7 105l92 21l4 -3s-7 -28 -7 -105v-259c0 -40 2 -57 36 -57h38l3 -24s-59 -26 -91 -26c-37 0 -64 14 -64 60v52c-36 -54 -95 -112 -171 -112
c-29 0 -57 9 -80 32c5 -86 39 -165 39 -207c0 -30 -19 -50 -41 -50c-37 0 -45 29 -45 72c0 31 4 67 4 108z" />
    <glyph glyph-name="numbersign" unicode="#" horiz-adv-x="633" 
d="M320 -89l45 219h-162l-44 -219h-49l45 219h-126l8 45h127l31 152h-128l8 45h129l43 206h48l-43 -206h162l43 206h48l-43 -206h139l-8 -45h-140l-31 -152h141l-8 -45h-142l-44 -219h-49zM243 327l-31 -152h162l31 152h-162z" />
    <glyph glyph-name="Oslash" unicode="&#xd8;" horiz-adv-x="795" 
d="M45 325c0 180 129 354 363 354c72 0 134 -17 186 -46l49 64h56l-68 -89c76 -58 119 -148 119 -251c0 -191 -146 -369 -367 -369c-71 0 -134 18 -185 50l-52 -68h-57l72 95c-74 63 -116 157 -116 260zM651 332c0 75 -24 153 -69 211l-339 -447c41 -41 95 -68 160 -68
c157 0 248 158 248 304zM144 351c0 -75 24 -156 68 -219l339 444c-42 38 -95 63 -160 63c-156 0 -247 -141 -247 -288z" />
    <glyph glyph-name="Thorn" unicode="&#xde;" horiz-adv-x="561" 
d="M277 157v28c116 3 161 69 161 139c0 108 -94 151 -200 151h-15l-10 -10v-374c0 -29 -5 -51 -5 -51l95 -9l-4 -28l-246 -6v32c44 5 72 28 72 62v478c0 48 0 58 -74 73v25h78c90 0 112 4 112 4l5 -4s-33 -38 -33 -121v-32h78c115 0 245 -44 245 -169
c0 -149 -151 -199 -259 -188z" />
    <glyph glyph-name="thorn" unicode="&#xfe;" horiz-adv-x="520" 
d="M158 80c0 -47 39 -54 72 -54c104 0 165 75 165 189c0 96 -42 189 -131 189c-39 0 -75 -18 -106 -42v-282zM76 -122v721c0 43 -1 68 -30 68h-42v27c115 25 161 45 161 45l3 -3s-10 -37 -10 -114v-149c0 -40 -2 -89 -2 -89c27 34 65 78 144 78c122 0 182 -108 182 -218
c0 -127 -81 -256 -257 -256c-27 0 -48 3 -67 6v-115c0 -30 -5 -57 -5 -57h105l-4 -24s-158 -19 -230 -43v29c45 25 52 48 52 94z" />
    <glyph glyph-name="notequal" unicode="&#x2260;" horiz-adv-x="520" 
d="M35 318v55h269l73 122l40 -25l-58 -97h124v-55h-156l-80 -135h236v-55h-269l-72 -122l-40 25l57 97h-124v55h157l80 135h-237z" />
    <glyph glyph-name="Eth" unicode="&#xd0;" horiz-adv-x="746" 
d="M35 318v42h91v209c0 48 -5 58 -82 73v25h274c194 0 381 -73 381 -309c0 -226 -169 -358 -419 -358h-81c-50 0 -145 -3 -145 -3v32c45 5 72 26 72 62v227h-91zM209 39h71c234 0 320 130 320 296c0 177 -99 293 -286 293h-90l-10 -10v-258h166v-42h-166v-223
c0 -30 -5 -56 -5 -56z" />
    <glyph glyph-name="eth" unicode="&#xf0;" horiz-adv-x="526" 
d="M132 513l-20 35l126 76c-42 38 -93 70 -155 90l10 26c75 -15 141 -44 197 -84l133 81l19 -35l-119 -73c97 -89 154 -217 154 -347c0 -167 -85 -294 -233 -294c-137 0 -207 106 -207 220c0 125 83 254 228 254c40 0 71 -9 91 -17c-20 54 -49 105 -89 150zM124 227
c0 -92 41 -205 128 -205c74 0 138 82 138 235c0 70 -18 169 -114 169c-92 0 -152 -85 -152 -199z" />
    <glyph glyph-name="degree" unicode="&#xb0;" horiz-adv-x="322" 
d="M161 485c40 0 72 32 72 74s-32 74 -72 74s-72 -32 -72 -74s32 -74 72 -74zM161 439c-68 0 -122 54 -122 120s54 120 122 120s122 -54 122 -120s-54 -120 -122 -120z" />
    <glyph glyph-name="onehalf" unicode="&#xbd;" horiz-adv-x="862" 
d="M41 266v28l42 2c34 2 36 19 36 35v261c0 33 -8 30 -21 27l-63 -14l-4 30c115 31 167 48 167 48l3 -4s-8 -21 -8 -68v-280c0 -15 -2 -30 -2 -30l79 -5l-3 -26zM556 0l-8 26c43 39 106 93 145 155c25 39 37 75 37 108c0 45 -32 65 -66 65c-36 0 -68 -14 -91 -34l-19 21
s52 70 134 70c56 0 117 -31 117 -100c0 -86 -99 -178 -176 -255h115c40 0 48 18 59 54h28l-17 -110h-258zM251 0h-57l393 682l47 -16z" />
    <glyph glyph-name="onequarter" unicode="&#xbc;" horiz-adv-x="804" 
d="M467 114l-6 35l193 252l57 11s-4 -27 -4 -70v-186h68l-11 -42h-57v-54c0 -15 -2 -30 -2 -30l54 -5l-2 -23l-168 -4v24c28 3 45 18 45 38v54h-167zM507 156h127v161zM43 266v28l42 2c34 2 36 19 36 35v261c0 33 -8 30 -21 27l-63 -14l-4 30c115 31 167 48 167 48l3 -4
s-8 -21 -8 -68v-280c0 -15 -2 -30 -2 -30l79 -5l-3 -26zM252 0h-57l393 682l47 -16z" />
    <glyph glyph-name="onesuperior" unicode="&#xb9;" horiz-adv-x="268" 
d="M31 374v28l42 2c34 2 36 19 36 35v261c0 33 -8 30 -21 27l-63 -14l-4 30c115 31 167 48 167 48l3 -4s-8 -21 -8 -68v-280c0 -15 -2 -30 -2 -30l79 -5l-3 -26z" />
    <glyph glyph-name="threequarters" unicode="&#xbe;" horiz-adv-x="797" 
d="M458 114l-6 35l193 252l57 11s-4 -27 -4 -70v-186h68l-11 -42h-57v-54c0 -15 -2 -30 -2 -30l54 -5l-2 -23l-168 -4v24c28 3 45 18 45 38v54h-167zM139 261c-43 0 -108 15 -108 48c0 17 13 24 29 24c40 0 44 -47 89 -47c37 0 71 50 71 94c0 46 -35 80 -95 80
c-12 0 -26 -2 -26 -2v35c55 4 98 44 98 88c0 36 -25 47 -49 47c-26 0 -55 -9 -77 -24l-19 21s44 54 121 54c46 0 101 -24 101 -83c0 -42 -57 -84 -96 -105c71 -10 123 -52 123 -104c0 -74 -83 -126 -162 -126zM243 0h-57l393 682l47 -16zM498 156h127v161z" />
    <glyph glyph-name="threesuperior" unicode="&#xb3;" horiz-adv-x="320" 
d="M128 369c-43 0 -108 15 -108 48c0 17 13 24 29 24c40 0 44 -47 89 -47c37 0 71 50 71 94c0 46 -35 80 -95 80c-12 0 -26 -2 -26 -2v35c55 4 98 44 98 88c0 36 -25 47 -49 47c-26 0 -55 -9 -77 -24l-19 21s44 54 121 54c46 0 101 -24 101 -83c0 -42 -57 -84 -96 -105
c71 -10 123 -52 123 -104c0 -74 -83 -126 -162 -126z" />
    <glyph glyph-name="twosuperior" unicode="&#xb2;" horiz-adv-x="331" 
d="M29 376l-8 26c43 39 106 93 145 155c25 39 37 75 37 108c0 45 -32 65 -66 65c-36 0 -68 -14 -91 -34l-19 21s52 70 134 70c56 0 117 -31 117 -100c0 -86 -99 -178 -176 -255h115c40 0 48 18 59 54h28l-17 -110h-258z" />
    <glyph glyph-name="brokenbar" unicode="&#xa6;" horiz-adv-x="252" 
d="M90 328v358h72v-358h-72zM90 173h72v-358h-72v358z" />
    <glyph glyph-name="ordfeminine" unicode="&#xaa;" horiz-adv-x="388" 
d="M123 347c-51 0 -79 33 -79 72c0 68 83 107 174 117v29c0 24 1 87 -39 87c-42 0 -71 -70 -71 -70h-28l-12 57s52 40 132 40c69 0 87 -26 87 -101v-159c0 -21 2 -31 13 -31c15 0 39 18 39 18l13 -19s-36 -40 -78 -40c-29 0 -53 16 -53 59c0 0 -40 -59 -98 -59zM148 390
c31 0 70 40 70 40v79c-51 -6 -101 -32 -101 -77c0 -27 13 -42 31 -42z" />
    <glyph glyph-name="ordmasculine" unicode="&#xba;" horiz-adv-x="411" 
d="M199 347c-102 0 -157 70 -157 159c0 82 46 173 168 173c105 0 160 -67 160 -153c0 -87 -56 -179 -171 -179zM209 376c55 0 84 60 84 130c0 68 -25 145 -91 145c-60 0 -85 -64 -85 -128c0 -69 27 -147 92 -147z" />
    <glyph glyph-name="asciicircum" unicode="^" horiz-adv-x="550" 
d="M36 250l214 429h50l214 -429h-66l-174 350l-174 -350h-64z" />
    <glyph glyph-name="asciitilde" unicode="~" horiz-adv-x="589" 
d="M66 175c0 110 52 155 127 155c115 0 122 -104 199 -104c60 0 71 63 71 100h59c0 -110 -52 -155 -127 -155c-115 0 -122 104 -199 104c-60 0 -71 -63 -71 -100h-59z" />
    <glyph glyph-name="logicalnot" unicode="&#xac;" horiz-adv-x="520" 
d="M24 334v55h448v-278h-59v223h-389z" />
    <glyph glyph-name="eightsuperior" unicode="&#x2078;" horiz-adv-x="336" 
d="M159 369c-53 0 -124 28 -124 95c0 62 39 90 82 118c-37 30 -69 65 -69 115c0 53 49 90 128 90c66 0 112 -33 112 -82c0 -52 -39 -77 -77 -102c46 -34 91 -71 91 -124c0 -66 -56 -110 -143 -110zM164 397c35 0 65 23 65 64s-45 71 -89 104c-25 -21 -41 -50 -41 -88
c0 -54 29 -80 65 -80zM120 708c0 -34 31 -61 67 -88c22 19 36 46 36 82c0 38 -23 57 -53 57c-28 0 -50 -16 -50 -51z" />
    <glyph glyph-name="ninesuperior" unicode="&#x2079;" horiz-adv-x="346" 
d="M71 369l-4 28c122 7 166 119 166 213c0 75 -29 149 -73 149c-34 0 -55 -53 -55 -100s19 -113 77 -104l3 -29s-19 -5 -40 -5c-79 0 -120 61 -120 120c0 67 50 146 144 146c97 0 145 -84 145 -170c0 -115 -80 -248 -243 -248z" />
    <glyph glyph-name="macron" unicode="&#xaf;" horiz-adv-x="500" 
d="M136 589v59h228v-59h-228z" />
    <glyph glyph-name="w.smcp" unicode="&#xf777;" horiz-adv-x="756" 
d="M253 -9l-30 12l-172 418c-14 34 -47 39 -47 39v22h48c46 0 95 3 95 3l3 -3s-17 -37 -5 -67l94 -237l20 -62l99 265l-16 40c-14 34 -47 39 -47 39v22h48c46 0 95 3 95 3l3 -3s-16 -37 -5 -67l89 -234c6 -18 13 -43 18 -63l99 263c15 43 3 66 -37 78v23h132l3 -13
s-31 -17 -59 -96l-144 -382l-28 12l-130 324z" />
    <glyph glyph-name="zero.numr" unicode="&#xf661;" horiz-adv-x="398" 
d="M199 284c57 0 66 98 66 182s-9 180 -66 180c-58 0 -68 -96 -68 -179c0 -85 10 -183 68 -183zM193 256c-103 0 -142 99 -142 201c0 107 44 217 152 217c105 0 143 -97 143 -198c0 -108 -45 -220 -153 -220z" />
    <glyph glyph-name="rcaron.smcp" unicode="&#xf696;" horiz-adv-x="516" 
d="M48 -3v29c38 4 60 26 60 59v308c0 44 0 53 -61 67v22h188c141 0 193 -56 193 -116c0 -63 -57 -105 -94 -127v-13l109 -154c28 -40 46 -40 70 -42l-4 -30h-129l-3 3s-11 32 -44 79l-88 125h-42l-10 -10v-112c0 -27 -4 -48 -4 -48l76 -9l-4 -25zM193 243h58
c40 0 87 33 87 101c0 56 -32 102 -114 102h-21l-10 -10v-193zM225 553l-124 116l22 28l121 -70h4l122 70l22 -28l-124 -116h-43z" />
    <glyph glyph-name="rcommaaccent.smcp" unicode="&#xf697;" horiz-adv-x="516" 
d="M48 -3v29c38 4 60 26 60 59v308c0 44 0 53 -61 67v22h188c141 0 193 -56 193 -116c0 -63 -57 -105 -94 -127v-13l109 -154c28 -40 46 -40 70 -42l-4 -30h-129l-3 3s-11 32 -44 79l-88 125h-42l-10 -10v-112c0 -27 -4 -48 -4 -48l76 -9l-4 -25zM193 243h58
c40 0 87 33 87 101c0 56 -32 102 -114 102h-21l-10 -10v-193zM232 -66l11 23h75s24 -34 24 -72c0 -57 -58 -105 -105 -128l-20 29c38 22 57 42 57 67c0 22 -18 52 -42 81z" />
    <glyph glyph-name="uogonek.smcp" unicode="&#xf6a2;" horiz-adv-x="590" 
d="M89 169v224c0 44 0 53 -61 67v22h70c77 0 96 4 96 4l4 -4s-24 -34 -24 -111v-196c0 -104 72 -148 143 -148s143 48 143 143v220c0 39 -1 60 -68 67v25h164l4 -12s-57 -17 -57 -92v-206c0 -71 -30 -120 -77 -150c-25 -17 -110 -89 -110 -155c0 -48 35 -64 67 -64
c8 0 22 2 22 2l7 -25c-30 -11 -57 -17 -80 -17c-60 0 -97 37 -97 84c0 52 45 92 103 144c-14 -2 -28 -3 -42 -3c-101 0 -207 46 -207 181z" />
    <glyph glyph-name="uring.smcp" unicode="&#xf6a3;" horiz-adv-x="588" 
d="M89 169v224c0 44 0 53 -61 67v22h70c77 0 96 4 96 4l4 -4s-24 -34 -24 -111v-196c0 -104 72 -148 143 -148s143 48 143 143v220c0 39 -1 60 -68 67v25h164l4 -12s-57 -17 -57 -92v-206c0 -124 -93 -184 -207 -184c-101 0 -207 46 -207 181zM303 544c-64 0 -94 40 -94 81
c0 39 30 79 94 79s94 -40 94 -79c0 -41 -30 -81 -94 -81zM303 578c31 0 48 23 48 46s-15 46 -48 46c-34 0 -47 -23 -47 -46s15 -46 47 -46z" />
    <glyph glyph-name="utilde.smcp" unicode="&#xf6a4;" horiz-adv-x="588" 
d="M89 169v224c0 44 0 53 -61 67v22h70c77 0 96 4 96 4l4 -4s-24 -34 -24 -111v-196c0 -104 72 -148 143 -148s143 48 143 143v220c0 39 -1 60 -68 67v25h164l4 -12s-57 -17 -57 -92v-206c0 -124 -93 -184 -207 -184c-101 0 -207 46 -207 181zM171 564l-35 7s8 113 93 113
c57 0 113 -59 157 -59c42 0 49 59 49 59l36 -3s-6 -117 -102 -117c-65 0 -102 59 -148 59c-39 0 -50 -59 -50 -59z" />
    <glyph glyph-name="wacute.smcp" unicode="&#xf6a5;" horiz-adv-x="756" 
d="M253 -9l-30 12l-172 418c-14 34 -47 39 -47 39v22h48c46 0 95 3 95 3l3 -3s-17 -37 -5 -67l94 -237l20 -62l99 265l-16 40c-14 34 -47 39 -47 39v22h48c46 0 95 3 95 3l3 -3s-16 -37 -5 -67l89 -234c6 -18 13 -43 18 -63l99 263c15 43 3 66 -37 78v23h132l3 -13
s-31 -17 -59 -96l-144 -382l-28 12l-130 324zM296 554l-13 33l177 105h5l33 -52v-25z" />
    <glyph glyph-name="wcircumflex.smcp" unicode="&#xf6a6;" horiz-adv-x="756" 
d="M253 -9l-30 12l-172 418c-14 34 -47 39 -47 39v22h48c46 0 95 3 95 3l3 -3s-17 -37 -5 -67l94 -237l20 -62l99 265l-16 40c-14 34 -47 39 -47 39v22h48c46 0 95 3 95 3l3 -3s-16 -37 -5 -67l89 -234c6 -18 13 -43 18 -63l99 263c15 43 3 66 -37 78v23h132l3 -13
s-31 -17 -59 -96l-144 -382l-28 12l-130 324zM256 552l-22 28l124 116h43l124 -116l-22 -28l-122 70h-4z" />
    <glyph glyph-name="wdieresis.smcp" unicode="&#xf6a7;" horiz-adv-x="756" 
d="M253 -9l-30 12l-172 418c-14 34 -47 39 -47 39v22h48c46 0 95 3 95 3l3 -3s-17 -37 -5 -67l94 -237l20 -62l99 265l-16 40c-14 34 -47 39 -47 39v22h48c46 0 95 3 95 3l3 -3s-16 -37 -5 -67l89 -234c6 -18 13 -43 18 -63l99 263c15 43 3 66 -37 78v23h132l3 -13
s-31 -17 -59 -96l-144 -382l-28 12l-130 324zM218 624c0 29 25 54 54 54s54 -25 54 -54s-25 -54 -54 -54s-54 25 -54 54zM433 624c0 29 25 54 54 54s54 -25 54 -54s-25 -54 -54 -54s-54 25 -54 54z" />
    <glyph glyph-name="uni00A0" unicode="&#xa0;" horiz-adv-x="225" 
 />
  </font>
</defs>
</svg>
